<?xml version="1.0" standalone="no"?>
<!DOCTYPE svg PUBLIC "-//W3C//DTD SVG 1.1//EN" "http://www.w3.org/Graphics/SVG/1.1/DTD/svg11.dtd" >
<svg xmlns="http://www.w3.org/2000/svg">
<metadata>
This is a custom SVG webfont generated by Font Squirrel.
Copyright   : Generated by Fontographer 40
</metadata>
<defs>
<font id="webfontNKM4xNMC" horiz-adv-x="1193" >
<font-face units-per-em="2048" ascent="1638" descent="-410" />
<missing-glyph horiz-adv-x="1019" />
<glyph unicode=" "  horiz-adv-x="1019" />
<glyph unicode="&#x09;" horiz-adv-x="1019" />
<glyph unicode="&#xa0;" horiz-adv-x="1019" />
<glyph unicode="!" horiz-adv-x="653" d="M51 106q0 63 94 64q20 0 62 -35q39 -33 39 -53q0 -113 -78 -113q-25 0 -72 56q-45 54 -45 81zM100 469q25 162 25 180q0 55 4 101q23 96 49 321q53 172 84 315l57 297q12 55 60 56q12 0 33 -10q16 -31 59 -64q0 -3 6 -31l6 -28q-10 -51 -41 -176q-31 -135 -57 -271 q-29 -139 -35 -184q-2 -18 -7 -54t-12 -94.5t-14 -109.5l-43 -217q0 -82 -4 -146q-2 -8 -28 -28q-25 -18 -39 -19q-103 0 -103 162z" />
<glyph unicode="&#x22;" horiz-adv-x="667" d="M45 1313q0 33 25 102q0 3 -13 37q0 43 13 76q10 55 77 215h33q84 -47 84 -127q-2 0 -55 -324l-19 -20q0 -20 -2 -37q-6 -10 -6 -16q-47 0 -63 -5l-41 52q-33 45 -33 47zM383 1417q0 70 23 189q25 135 65 153q106 -39 107 -151q0 -72 -33 -271q-6 -33 -29 -118h-22h-54 q-18 27 -45 86q-12 46 -12 112z" />
<glyph unicode="#" horiz-adv-x="1622" d="M70 578q8 14 30 49q12 20 35 20q2 0 15 -4l10 -4l3 1q3 1 8 4t11 5q23 12 27 13l2 -2q2 -1 5 -3t7 -4q12 -6 15 -6q29 0 268 29q10 0 45 18q2 0 6 -1t6 -1q33 0 58 37l43 80q47 84 67 115q43 98 74 98q22 0 37 -18l63 -66q0 -86 -8 -109q-12 -35 -66 -84q14 -20 70 -20 q96 0 111 8q6 2 100 125q100 131 127 131q20 0 55 -39q31 -37 31 -61q0 -39 -88 -154q8 -25 59 -24q2 0 7.5 1t9.5 1q27 2 59 2q25 0 27 -2q29 -29 55 -64q-57 -51 -94 -63q-25 -8 -123 -8q-8 0 -18 2q-4 0 -8.5 1t-7.5 2l-3 1q-35 0 -49 -15q-49 -52 -49 -98l-10 -57 q0 8 41 12q20 2 200 2q4 0 28.5 -6t27.5 -6t43 6l41 6q37 0 67 -63q-31 -18 -90 -46q-158 -41 -287 -40q-4 0 -8 4q-2 2 -4 2q-37 0 -127 -52q-14 -8 -39 -79q-4 -4 -24 -82l-15 -15q-16 14 -28 21q-6 0 -33 -15q0 2 -31 13l-27 10q0 68 25 111v24q-2 20 -12 21 q-29 0 -109 -15q-104 -18 -133 -32q-18 -8 -33 -76q-14 -74 -28 -84q-45 2 -136 31q-16 12 -16 28l14 45q6 25 7 41q0 12 -3 17q-4 4 -10 4q-12 0 -96 -15q-72 -10 -84 -10h-4q-70 41 -70 94q0 31 39 49q29 14 62 15l92 18q25 4 48 8.5l34 6.5l10 2q16 0 51 47t35 65v39h-18 q-51 0 -132 -8l-133 -12q-63 0 -118 20q-12 27 -39 58zM666 383q6 0 16 -2q4 0 8 -1t7 -2l3 -1l5 1q4 1 11 2t13 1q16 2 27 2q47 0 139 29q4 14 45 147q0 31 -27 31q-123 0 -172 -31q-18 -10 -46.5 -57t-28.5 -66v-53z" />
<glyph unicode="$" horiz-adv-x="1284" d="M72 412l3 4q3 4 8 14l11 21q172 -27 205 -27q10 0 27 2q6 0 13 1t10 2t5 1q35 0 45 49q0 2 11 60q9 9 24 30q25 58 25 117q0 8 -80 76q-86 74 -125 115q-94 104 -94 180q0 63 20 78q61 33 260 61h62q72 0 215 10l98 129q98 127 119 127q27 0 51 -26q29 -29 29 -58 q0 -22 -43 -98q-47 -84 -56 -102q55 -33 152 -72q72 -29 82 -66q16 -16 27 -18q2 -4 2 -31q0 -29 -33 -69h-6q-31 0 -78 8q-76 37 -92 47q-76 41 -111 41q-31 0 -53 -25q-16 -16 -37 -55q-74 -138 -74 -172q0 -10 4 -23q43 -31 54 -55q2 0 30 -8q35 -29 78 -84 q61 -121 62 -137q-3 -6 -13 -19q-27 -82 -157 -110l-213 -49q-20 -12 -39 -80q-25 -102 -25 -131v-2q-23 -43 -33 -80q-2 0 -18 8t-20.5 8t-16.5 -6l-12 -6q-51 0 -51 61q2 0 20 33q10 41 10 125v16q0 25 -16 60q-2 0 -109 8q-43 2 -98 29q-18 10 -37 41q-22 35 -22 47z M362 995q86 -98 168 -133q78 66 78 131v37q-22 6 -30 6q-157 0 -216 -41zM571 463h95q63 0 63 43q0 14 -37 45q-37 37 -61 37q-12 0 -35 -19q0 -3 -12 -30l-7.5 -14.5t-4.5 -9.5l-1 -3v-49z" />
<glyph unicode="%" horiz-adv-x="1755" d="M43 1081q0 31 51 97h113q4 8 4 26.5t-4 28.5l-12 35q0 76 51 90q18 6 133 6l14 -4q14 -4 49 -12.5t74 -16.5q131 -33 139 -33q31 0 70 2q16 0 74.5 1.5t103.5 1.5l248 4q20 0 84 -27q61 -28 68 -43q59 -131 59 -162l-2 2q-4 0 -39 -80q-10 -20 -66 -75 q-163 -163 -700 -560q-61 -45 -162 -149l-80 -162q-80 -18 -86 -18q-33 0 -57 59q-23 55 -23 74q0 55 78 133l103 102v5q0 10 10 20l393 285q218 160 344 319l45 60q0 12 -18 20q-109 10 -119 10q-157 0 -209 -37q0 -10 14 -30l-18 -105q-59 -49 -78 -90q-162 -98 -311 -98 q-127 0 -227 59q-39 20 -60 53q-51 84 -51 209zM205 1169v2q2 0 20 -61q-6 -8 -6 -29q0 -51 37 -94t84 -43h74q23 0 141 41q59 20 59 51q0 29 -20 56l-160 24q-4 0 -108 29l-93 24h-28zM735 252q0 115 88 207q86 90 203 90l12 -4q4 -1 10 -3q4 -1 5 -1q9 0 43 18q6 2 14 7 l20 12q31 12 195 12q129 0 295 -51q82 -86 102 -129q23 -45 23 -119q0 -41 -39 -86q-27 -31 -94 -80q-66 -31 -201 -68q-113 -33 -135 -32h-139q-98 0 -222 59q-35 29 -165 129q-15 14 -15 39zM979 299q0 -43 98 -74q80 -23 129 -22q102 0 207 39q115 43 146 88 q-152 57 -226 57q-218 0 -332 -37q-22 -22 -22 -51z" />
<glyph unicode="&#x26;" horiz-adv-x="1443" d="M43 301q0 55 2 61q2 4 59 78q33 43 89 72l96 53l200 121q10 6 11 25l-17 116l-14 115q0 66 86 182q102 139 125 226q131 125 291 125q35 0 110 -70q61 -59 78 -84q63 -109 64 -211q0 -111 -66 -182q-27 -27 -205 -168q-35 -18 -133 -84l-57 -25q-53 -25 -53 -47 q0 -12 53 -76q53 -61 63 -61q150 61 377 131l25 18q29 0 65 -26q35 -25 35 -49q-14 -14 -47 -60q-199 -61 -303 -151v-33q33 -10 45 -18q39 -45 98 -103l39 -33q27 -43 27 -61q0 -72 -64 -72q-43 0 -69 21q-29 23 -162 143q-95 86 -105 86q-6 0 -92 -39t-90 -39t-10 6 q-4 2 -8 2q-2 0 -58 -30q-53 -29 -63 -33q-150 -45 -229 -45q-193 0 -193 219zM229 260q14 0 35 -2q6 0 11.5 -1t9.5 -1t7 -1t5 -1h2q59 0 176 43q129 47 189 88q-8 33 -47 84t-56 51l-51 -33q-2 -2 -160 -67q-16 -8 -67 -60q-53 -53 -54 -69v-31zM616 877q0 -82 35 -93 q55 28 154 93q143 96 231 210q31 40 31 50q0 37 -27 90q-33 74 -84 73q-41 0 -147 -83q-92 -74 -107 -99q-31 -51 -59 -143q-27 -80 -27 -98z" />
<glyph unicode="'" horiz-adv-x="360" d="M43 1235q0 100 27 197l15 25.5l21 35.5h33q86 -86 86 -115l-2 4q-2 0 -33 -196q0 -4 5.5 -23.5t7.5 -34.5v-92q-2 -8 -21 -8q-8 4 -22 10q-25 10 -27 11q-2 -2 -8 -5q-8 -4 -12 -4q-12 0 -29 17q-41 110 -41 178z" />
<glyph unicode="(" horiz-adv-x="681" d="M63 655q0 139 136 482q8 6 22 30q31 123 223 342q203 233 297 234q41 0 64 -78q14 -45 14 -94v-17q-14 -18 -57 -53q-2 0 -27 -4q-295 -244 -426 -555q-25 -49 -49 -119l-14 -28q-2 -29 -13 -76q-10 -55 -10 -68q0 -168 117 -321q72 -92 248 -248q18 -57 18 -66 q-4 -16 -10 -45h-84q-55 0 -199 138q-115 104 -149 159q-12 18 -70 154q-31 113 -31 233z" />
<glyph unicode=")" horiz-adv-x="681" d="M-18 -2q0 47 43 92q342 354 395 533q23 76 22 237q0 154 -120 389q-96 182 -177 277q-22 28 -30 61q0 35 -11 127q47 37 52 37q68 0 184 -190l186 -318q90 -158 90 -457q0 -6 -6 -30q-2 -6 -2 -19q0 -8 4 -32q-29 -141 -69 -265q-33 -92 -119 -192l-102 -123 q-20 -20 -123 -109q-119 -100 -142 -100q-8 0 -18 1l-10 1q-47 57 -47 80z" />
<glyph unicode="*" horiz-adv-x="1007" d="M25 1053q0 25 57 100q41 51 108 88l121 68q45 25 45 45q0 6 -43 51q-61 63 -67 78q-16 31 -17 110q0 14 15 31q14 18 26 18q25 0 187 -135l78 115q74 111 100 123q76 -43 76 -127q0 -39 -21 -57v-19h-2q4 -4 14 -4l7 2l20 7t31 9l59 17q28 0 62 -31q35 -29 34 -51 q0 -35 -120 -88l-148 -88q0 -16 49 -107q63 -113 64 -137q0 -20 -33 -59h-10t-22.5 -1t-28.5 -1q-8 0 -57.5 61.5t-59.5 61.5h-2q-8 0 -10 -5l-62 -233h-10q-29 0 -53 -6q-4 6 -47 49v53q0 86 12 133q2 8 2 21q0 14 -12 14h-21q-37 0 -237 -168h-58q-4 10 -8 21.5t-6 18.5 l-4 13.5t-3 9.5l-1 3z" />
<glyph unicode="+" horiz-adv-x="968" d="M84 387q0 22 43 43q41 20 90 21q18 -2 49 -5q12 0 24.5 -1t18.5 -2t8 -1q47 0 58 25l61 172q4 8 11.5 20.5t9.5 14.5q18 20 57 20q84 0 84 -123q-23 -80 -23 -96l304 -49q25 -14 51 -64q-18 -23 -49 -47q-29 -16 -99 -16q-164 0 -260 -20q-29 -10 -35 -33 q-20 -90 -61 -203h-39q-76 0 -76 72q0 2 1 8t2 17.5t1 23.5t1 23.5t2 17.5l1 6q0 57 -55 57q-6 0 -16 -2q-4 0 -8 -1l-8 -2l-3 -1q-8 0 -47 6l-59 11q-25 18 -31 38q-2 4 -2 13q0 14 6 32q-12 17 -12 25z" />
<glyph unicode="," horiz-adv-x="552" d="M-55 -330q0 14 73 107l105 133q63 82 72 141q2 12 5 35t7 43.5t8 38.5q2 4 15.5 22.5t21.5 30.5h33q94 0 94 -172q0 -6 -43 -190l-119 -162q-8 -12 -78 -57q-80 -49 -98 -50q-41 0 -68 25q-28 24 -28 55z" />
<glyph unicode="-" horiz-adv-x="704" d="M53 442q0 94 97 95q162 0 174 -5q51 -8 157 -8l29 6q35 0 88 -16q33 -41 33 -74q0 -25 -39 -43l-33 -32q-20 -16 -61 -17q-4 0 -11.5 1t-11.5 1q-18 -4 -94 -16h-135l-135 16q-8 2 -48 29q-10 45 -10 63z" />
<glyph unicode="." horiz-adv-x="385" d="M74 109q0 61 76 163h79q78 -86 78 -116q0 -55 19 -62q-49 -72 -121 -71q-131 0 -131 86z" />
<glyph unicode="/" horiz-adv-x="1568" d="M74 6q0 55 59 205q53 133 76 166l145 227q71 114 344 449q45 57 252 293q37 41 293 260q168 143 207 143q20 0 43 -66q16 -49 16 -75q0 -53 -43 -97l-61 -61q-18 -33 -57 -78q-276 -215 -447 -416q-608 -721 -674 -1067h-104q0 6 -29 60q-20 41 -20 57z" />
<glyph unicode="0" horiz-adv-x="2011" d="M45 664q0 197 135 395q49 72 260 289q68 70 287 120q186 45 338 45q80 0 201 -20q18 2 67 2q324 -78 393 -109q188 -86 220 -270q35 -92 34 -102q0 -137 -59 -279q-70 -98 -106 -155q-4 -14 -7 -37q-37 -53 -94 -115q-2 0 -32.5 -18.5l-114.5 -67.5l-168 -98 q-6 -2 -24.5 -9.5t-45.5 -17.5q-41 -16 -41 -39v-10l-430 -98q-10 0 -24 -2q-6 0 -11.5 -1t-8.5 -2l-3 -2q-4 -3 -9 -6q-4 -3 -5 -4q-2 -2 -33 -6l-25 6q-23 6 -28 6q-10 0 -27 -2q-6 0 -12 -1t-9 -2l-4 -1q-35 0 -350 111q-12 23 -145 166q-80 94 -101 172q-18 60 -18 162z M289 451q0 -16 24 -56q41 -72 156 -127q117 -53 227 -53q2 0 9.5 1t20.5 2t28 1l53 4q68 0 264 62q309 96 461 198q113 78 201 228q90 152 90 264q0 88 -15 110q-63 111 -196 191q-129 78 -273 86q-45 14 -102 29q-119 10 -154 10q-29 0 -258 -27q-12 -6 -86 -28 q-49 -10 -129 -60q-10 -31 -35 -72l-151 -147q-66 -61 -105 -168q-31 -80 -30 -125l18 -102l11.5 -55.5t7.5 -38.5l2 -13l-2 -6q-2 -6 -7.5 -19.5l-11.5 -29.5q-18 -55 -18 -59z" />
<glyph unicode="1" horiz-adv-x="532" d="M129 575l94 607q0 6 17 141q14 102 90 102q29 0 55 -20q25 -41 59 -135l-127 -731q2 -33 6.5 -79t8.5 -110q14 -150 14 -192v-8q0 -6 16 -23v-84l-32 -27q-27 14 -60 19q-109 106 -120 262q-5 32 -21 278z" />
<glyph unicode="2" horiz-adv-x="1509" d="M45 1266q0 37 49 59q4 2 32 12.5t52 20.5q51 31 187 90l333 96q190 57 330 58q74 0 80 -3q206 -77 221 -196q-4 -4 -12 -29q16 -10 16 -43q0 -82 -53 -190q-55 -113 -123 -174q-6 -18 -35 -64q-74 -94 -221 -229q-22 -22 -436 -387q0 -10 -6 -35q-6 -2 -39 -29 q31 -25 80 -24q12 2 84 20q72 20 118 27q287 39 627 39l45 -6q41 -8 60 -9q20 -14 20 -20q0 -53 -86 -70l-111 -22q8 -4 31 -4q-281 -16 -391 -62q-25 -2 -182 -26q-205 -29 -365 -29q-15 0 -92 -6l-78 -6q-33 0 -65 20q0 16 -39 49l1 2q1 2 1 4q0 9 -6 31l-9 33q0 12 3 18 q272 197 391 299l217 193l92 100q18 8 51 31q102 94 252 297q94 174 94 254q0 39 -35 61q-39 27 -88 27q-104 0 -559 -133q-27 -8 -176 -78l-139 -62q-4 -4 -12 -4q-25 0 -68 39q-41 37 -41 60z" />
<glyph unicode="3" horiz-adv-x="1482" d="M35 76q3 0 12 55q152 102 412 129q426 49 682 207q98 59 98 94q0 33 -82 82q-68 39 -100 47q-287 78 -346 78q-12 -6 -25 -14q-10 -2 -100 -2q-82 0 -174 16l-41 25q0 4 12 59q6 39 12 57q49 27 148 64q264 92 391 174q113 70 242 207q8 8 26 59q-27 31 -125 31 q-12 0 -143 -21l-141 -20q-20 0 -43 16l-9 -20l-225 -64l-168 -53q-115 -39 -121 -39q-41 0 -67 45q-33 59 -49 72l41 49q201 72 299 96q125 31 350 76q199 41 227 41q6 0 22.5 -8t20.5 -8q2 0 6 1t11.5 2t13.5 1q25 4 24 4q55 0 131 -29q20 -14 101 -61q4 -14 16 -43 q16 -45 17 -49q0 -31 -23 -89q-10 -4 -31 -24v-4q0 -41 -92 -121q-86 -74 -147 -98q-47 -43 -142 -109q-35 -14 -145 -72q12 -33 203 -63q109 -29 182 -59q231 -96 231 -277q0 -90 -229 -205q-106 -51 -127 -65q-104 -16 -467 -115q-100 -8 -258 -35q-33 -6 -135 -51 q-90 -39 -96 -39q-14 0 -47 28.5t-33 43.5v-2z" />
<glyph unicode="4" horiz-adv-x="1519" d="M45 806.5q0 61.5 35 160.5l53 143q2 2 9.5 8t11.5 10q6 12 14 34l23.5 62t29.5 72l41 115q37 98 68 98q29 0 73 -34q43 -33 43 -60q0 -2 -16 -24q-8 -57 -45 -138q-10 -20 -63 -168q-61 -172 -62 -213q0 -49 45 -49h613q169 0 190 37q39 100 106 348l39 154l133 231 q49 84 84 111q63 -29 115 -59q-86 -168 -182 -392q-59 -197 -107 -409q15 -12 43 -13l21 5q6 1 12 3q3 1 4 1q51 0 51 -54q0 -43 -41 -57q-98 -35 -102 -39q-25 -16 -31 -33q-27 -72 -47 -202q0 -14 -3 -113.5t-5 -173.5q16 -18 19 -33q0 -10 -9 -67q-23 -14 -51 -50 q-86 12 -110 58q-49 84 -50 176q0 111 31 276q2 4 19 41l18 97q0 37 -37 36h-4l-639 -47q-92 10 -281 25q-59 65 -59 126.5z" />
<glyph unicode="5" horiz-adv-x="1615" d="M37 1001q0 109 117 312q10 2 18 16q0 4 7 19.5l23.5 53.5l30.5 73q10 27 50 55q82 29 233 29q427 0 535 -13q113 -12 133 -12q14 0 33 6l26 8q45 0 78 -32q33 -31 33 -72q0 -88 -103 -88q-18 0 -47 4l-43 6q-340 20 -620 20q-86 0 -115 -26q-20 -18 -86 -139 q-12 -12 -41 -56l-39 -110q145 -20 172 -21q14 0 37 2q10 0 19.5 1t14.5 2t7 1q0 -2 63 -14q338 -23 474 -51q262 -55 432 -193q33 -27 65 -106q14 -35 15 -78q-6 0 -52 -111q-94 -59 -190 -129q-2 -8 -2 -16v-6q-20 0 -195 -84q-86 -43 -209 -94q-408 -164 -489 -164 q-31 0 -63.5 26.5t-32.5 53.5q0 45 69 76q170 55 467 180l182 78l23 10q45 18 221 133q76 63 76 88q0 41 -178 149q-46 28 -135 50q-147 35 -170 34h-521q-16 0 -155 23q-125 20 -146 29q-22 40 -22 77z" />
<glyph unicode="6" horiz-adv-x="1765" d="M55 532q0 137 60 281q27 66 92 143q70 106 297 291q74 61 188 121q369 197 434 197q35 0 76 -29q39 -27 39 -55q0 -43 -43 -68q-18 -10 -137 -55q-33 -4 -66 -15q-233 -115 -354 -198q-43 -49 -115 -117q-195 -182 -241 -346q-49 -166 -54 -166q0 -164 244 -321 q12 -10 90 -27q70 -14 111 -14q82 0 231 32q154 34 209 62q23 4 56.5 11l80.5 17l16.5 11.5l22.5 15.5q33 4 74 23q23 8 94 67q88 74 88 107q0 16 -18 32l-162 91l-18 -17q-194 55 -252 56l-37 -7q-37 -4 -43 -4h-6h-29q-109 0 -213 -49q-78 -35 -186 -153q-27 -20 -70 -74 q-2 -6 -2 -66q-47 -10 -51 -10q-14 0 -39 25q-23 23 -23 38l23 56q0 29 10 57q14 27 47 82q31 49 66 70q224 141 553 141q135 0 311 -27q209 -33 244 -90q18 -4 43 -24q33 -53 33 -95q0 -16 -93 -182q-45 -82 -49 -82q0 -8 8 -16q-35 -4 -149 -51q-41 -29 -86 -51l8 -13 q-129 -23 -129 -59v-2q-45 -2 -246 -31l-24 -10q-23 -10 -39 -10q-4 0 -17 4l-12 4q-4 0 -76 -19q-18 -4 -37.5 -10t-27.5 -8t-10 -2q0 2 -27 2q-20 2 -66 2l-92 2q-29 0 -90 20q-63 18 -119 50q-6 4 -231 184q2 2 2 6q0 18 -16 43q-33 55 -35 62q-21 54 -21 167z" />
<glyph unicode="7" horiz-adv-x="1398" d="M63 1237q0 25 37 51q39 27 70 27q4 0 18.5 -8.5t20.5 -8.5q4 0 22 11q20 10 23 10h2q41 0 164 18q152 23 160 23q580 43 659 43q123 0 123 -109q0 -74 -70 -147l-114 -113q-131 -133 -222 -280q-25 -14 -53 -43q-61 -104 -172 -275q-39 -80 -76 -141q-47 -82 -47 -150 q0 -25 2 -34l-84 -111q-117 55 -116 115q0 37 51 125v12q0 18 6 51q33 68 143 258l101 168q35 61 180 223q121 135 196 240q0 14 15 53q-16 10 -74 10l-15 -2q-15 -2 -51 -8l-75 -12l-142 -23l-16 4q-8 2 -18 3q-4 0 -23 -9q-16 -8 -20 -8q-12 0 -33 -6q-27 -8 -37 -8 q-2 0 -16 8q-10 6 -17 6q-14 0 -55 -14l-59 -23q-129 -35 -238 -35q-51 0 -102 35q-48 35 -48 74z" />
<glyph unicode="8" horiz-adv-x="1652" d="M55 416q0 70 41 162q40 89 92 129q29 23 205 104v23q-102 39 -186 131q-88 98 -88 170q0 113 127 184q37 4 82 22q55 51 143 123q33 20 137 45l29 21q8 0 47 8q13 3 32 7q14 3 15 3l3 -1q3 -1 8.5 -2t11.5 -1q14 -2 24 -2t88 14q23 4 45.5 8.5t31.5 6.5l9 2q8 0 43 -8.5 t45 -8.5l4 2q4 1 12.5 2t18.5 1t19.5 1t14.5 2t7 1q72 0 230 -64q154 -59 190 -102q20 -20 49 -90q31 -76 31 -86l-23 -90q-12 -14 -30 -33q-25 -86 -152 -148l-199 -96q4 -18 138 -61q49 -16 102 -80q59 -70 59 -107q-6 -25 -14 -53q-10 -33 -14 -68q-8 -63 -70 -118 q-27 -18 -121 -90q-12 -6 -27.5 -12.5l-24.5 -10.5t-13 -6q-43 -23 -64 -72q-4 0 -12 1t-12 1q-18 0 -31 -4q-104 -47 -244 -100l-127 -31q-82 -20 -100 -20q-4 0 -14.5 1t-30 2t-37.5 1l-84 4q-104 6 -172 43q-121 66 -166 110q0 18 -14 47q-64 56 -64 183zM233 391v-41 q18 -27 76 -98q72 -57 217 -57h103q154 0 413 104q324 129 324 266q0 70 -199 125q-162 45 -221 45q-307 0 -469 -65q-101 -40 -172 -123q-72 -80 -72 -156zM354 1010q43 -18 60 -27q74 -46 166 -61q68 -10 227 -11q84 0 367 82q43 27 120 62q172 74 172 151q0 51 -98 113 q-51 31 -186 96q-10 2 -28.5 5t-27.5 5q-83 12 -98 13l-86 4l-65 2h-15q-94 0 -235 -51q-51 -18 -84 -41q-146 -96 -189 -342z" />
<glyph unicode="9" horiz-adv-x="1126" d="M63 1092q0 52 56 104q156 150 524 150q181 0 338 -123q35 -29 41 -74q2 -2 7 -8t11.5 -11.5t12.5 -11.5q25 -61 26 -65v-197q0 -4 -18.5 -41t-18.5 -41q0 -41 -30 -123q-98 -156 -187 -250q-43 -49 -125 -127q-66 -61 -206 -172q-20 -18 -106.5 -51t-106.5 -33 q-23 0 -47.5 18.5t-24.5 31t27 32.5l43 37l296 275q25 20 107 100q29 35 86 119q-8 20 -43 20q-20 0 -100 -16q-39 0 -113 22q-115 35 -182 66q-109 47 -180 123q-23 23 -56 112q-31 87 -31 134zM250 1010q0 -49 112 -123q111 -70 152 -74q104 -3 197 -12q61 -6 114 -53 q16 20 43 67q33 131 33 162q0 117 -94 156q-92 35 -107 34q-184 0 -249 -12q-53 -12 -129 -63q-72 -49 -72 -82z" />
<glyph unicode=":" horiz-adv-x="540" d="M111 145q0 20 22 62q27 51 57 51q115 -16 132 -16q55 -53 55 -144q0 -22 -6 -49q-100 -49 -162 -49q-8 0 -39 25l-37 26q-22 55 -22 94zM213 649q0 12 4 31q6 25 6 29q18 6 35 14q25 10 47 10q53 0 98 -35q43 -34 43 -73q0 -125 -106 -125q-41 0 -84 51q-43 52 -43 98z " />
<glyph unicode=";" horiz-adv-x="610" d="M-80 -266q16 29 84 123l131 129q29 29 72 96q16 10 39 27q51 66 116 141q31 35 78 35l43 -25q43 -25 47 -24q0 -2 17 -68q0 -37 -66 -109q-205 -221 -325 -292q-90 -82 -136 -82q-39 0 -100 49zM319 526q0 78 99 121h39q29 -43 63 -67q25 -18 25 -66q0 -23 -15 -82 q-66 -35 -71 -35q-45 0 -80 11z" />
<glyph unicode="&#x3c;" horiz-adv-x="1003" d="M66 651v6q96 43 170 84l366 201q98 53 207 125q127 84 135 84q45 0 94 -45q47 -43 47 -88q0 -23 -4 -35q-57 -47 -399 -233q-287 -154 -287 -181q0 -8 170 -147q246 -203 273 -227q80 -72 80 -113q0 -109 -72 -109l-35 15q-39 16 -45 16l-12 -4l-9 -2q-14 0 -53 47 q-46 55 -67 74q-137 119 -306 239l-114 62q-86 52 -117 104q-22 39 -22 127z" />
<glyph unicode="=" horiz-adv-x="1114" d="M78 285q0 72 41 84l186 12h-4q10 0 53 -8t52 -8l380 38l70 -4q57 -4 88 -4q51 -6 84 -26q41 -29 41 -54q0 -74 -201 -110l-231 -39q-43 -23 -115 -29h-24q-57 0 -99 4l-73 6q-248 15 -248 138zM180 578q0 63 19 81q20 20 82 21q37 0 188 -4l190 -4q6 0 24.5 8t27.5 8 q4 0 20 -8q18 -8 24.5 -8t39 8t41.5 8q20 0 151 -12q18 -4 107 -31q12 -10 12 -39q0 -145 -770 -145q-156 0 -156 117z" />
<glyph unicode="&#x3e;" horiz-adv-x="989" d="M25 82q0 12 38 72q35 53 60 73l209 164q25 18 194 107q96 47 166 114l-241 242q-29 14 -68 47q-10 12 -150 141q-55 51 -55 134q0 92 51 92q41 0 248 -195l324 -309q20 -14 117 -90q41 -45 40 -115q0 -39 -221 -170q-27 -8 -55 -20q-209 -106 -375 -242q-8 -20 -41 -64 q-115 -98 -131 -98t-61 10q-10 2 -31 45q-18 40 -18 62z" />
<glyph unicode="?" horiz-adv-x="1232" d="M111 1397q2 0 12 94l254 111q25 12 221 53q195 41 227 41q133 0 170 -13q209 -68 209 -247q0 -168 -227 -322l-424 -235q-227 -125 -227 -224q0 -31 14 -59q4 -8 4 -59q-14 -10 -45 -11q-82 0 -121 82q-29 57 -28 111q0 84 20 127q25 57 131 119l315 178l31 4l195 125 q174 113 174 160q0 51 -90 61h-121q-6 0 -35 -6q-12 -2 -24 -7l-5 -1q-154 -10 -223 -37q-46 -18 -178 -80q-113 -53 -123 -53q-37 0 -70 30q-36 31 -36 58zM213 82q0 76 35 133l106 12q12 0 45 -32q39 -39 58 -52q-16 -12 -39 -92q-18 -57 -58 -57q-2 2 -41 20l-57 4 q-49 35 -49 64z" />
<glyph unicode="@" horiz-adv-x="1658" d="M59 442q0 14 25 95q0 33 14 81q76 129 226 273q35 33 231 127q16 12 78 41q68 20 176 57q145 61 432 62q72 -20 107 -37q102 -51 155 -135q0 -6 6 -41q16 -20 31 -33q39 -211 43 -211v2q0 -35 -18 -84v-8q0 -39 -4 -66q-31 -82 -105 -133q-74 -55 -160 -55t-196 53 q-88 45 -88 51h4h2q0 -4 -150 -47q-164 -49 -198 -49q-63 0 -84 12q-45 25 -72 103q-25 70 -25 108q0 61 84 162v29q-33 -10 -59 -21q-33 -18 -90 -59q-117 -133 -129 -150q-49 -70 -49 -155q0 -68 26 -105q25 -34 129 -98q68 -43 236 -43l15 3q15 3 55.5 10t80.5 16l154 28 l19 -4q4 0 10 -1t9 -2t5 -1l8 2q8 2 26.5 6t37 8.5t37 8.5t26.5 6l8 2q61 0 62 -53q0 -39 -51 -72q-31 -18 -135 -55q-86 -31 -103 -31l-5 -1q-5 -1 -13.5 -2t-18.5 -1t-19 -1t-13.5 -2t-6.5 -1q-41 -2 -120 -8l-119 -9q-8 0 -22.5 -1t-22.5 -1q-201 0 -344 115 q-138 110 -138 315zM723 623h18q35 0 105 34l90 48l-23 6q-20 6 -28 6q-43 0 -150 -60q-4 -14 -12 -34zM854 913q242 -20 313 -139q34 -55 37 -92q-23 -23 -22 -55q0 -55 51 -56q90 0 145 66q53 61 54 168q0 89 -74 141q-76 53 -201 53q-180 0 -303 -86z" />
<glyph unicode="A" horiz-adv-x="1673" d="M25 135q0 66 12 84q12 14 21.5 23.5t14.5 15.5l14 17.5t22 23.5q55 66 79 119q2 2 2 8v-2q-4 0 -16 68q-2 6 -2 16q0 27 23 45q18 8 36.5 17.5t38.5 17.5q76 37 92 61q4 2 82 135q29 25 66 68l295 473q4 25 14 53l133 224q0 25 4 45l70 96q29 10 29 12q88 0 139 -153 q14 -53 49 -158q41 -129 66 -217q29 -190 69 -371q33 -137 127 -358l49 -76q35 -57 35 -76q0 -80 -96 -80h-80q-9 0 -61 37q-63 41 -72 43q-115 49 -244 76q-283 55 -450 55q-18 0 -35 -14l-21 14q-86 -6 -151 -147q-20 -23 -74 -90q0 -2 -14 -54q-10 -25 -37 -65l-121 -103 q-18 10 -34.5 22.5t-35.5 22.5q-38 33 -38 72zM608 670q6 -6 170 -31q141 -8 338 -35q59 -27 88 -26h37q10 20 10 22q0 6 -24 55l-27 54l-74 366q-2 4 -14 17q0 55 -4 96q-2 6 -8 39t-13 59q-12 55 -59 92q-39 -51 -102 -198q-6 -28 -37 -62l-53 -55q-61 -117 -127 -225 q-16 -12 -39 -39q-7 -18 -62 -129z" />
<glyph unicode="B" horiz-adv-x="2074" d="M25 1311q0 63 34 82q152 86 494 200q27 4 63 6q489 135 844 136l35 -6q10 -2 19.5 -4.5t14.5 -3.5t7 -1q117 0 289 -102q70 -109 69 -148q0 -127 -135 -243q-72 -61 -305 -207q0 -18 47 -25q78 -12 82 -14q35 -18 37 -20q6 0 10 4l12 4q10 0 35 -15q82 -12 193 -106 q106 -90 125 -172q10 -43 10 -90q0 -37 -31 -84q-41 -31 -67 -56q-18 -31 -41 -57q-274 -164 -330 -164q-14 0 -31 17l-22 -25q-23 -23 -33 -22q-6 0 -14 4l-9 4q-10 0 -30 -33h-80l16 18q-12 14 -45 15q-29 0 -57 -15l2 -2q2 -2 5 -4t8 -7t11 -9q-106 -59 -135 -60l-3 1 q-4 2 -9 4q-4 0 -8 1t-7 2l-3 1q-4 0 -41 -19q-37 -14 -43 -14q-35 0 -47 24q-35 -25 -39 -24q-1 0 -5 1q-5 2 -10 3l-16 4q-37 0 -37 -31q0 -8 2 -16l-475 -106q-74 18 -100 26q-49 16 -68 62v26q0 47 -4 80q-33 125 -33 309q0 16 -4 45l-6 43q0 94 20 236q0 10 -6 31 q10 35 33 198q18 127 18 164q0 29 -18 53q-31 -8 -78 -8q-110 0 -110 109zM389 246q23 -76 66 -76q14 0 106 25q104 29 144 36q395 76 831 238q4 2 17.5 13.5t29.5 23.5q180 76 180 141q0 152 -565 152q-4 0 -72 -19q-18 -6 -35.5 -11t-25.5 -7l-8 -2q-9 0 -215 -37 q-133 -25 -197 -25q-3 0 -30.5 -6t-30.5 -6q-33 4 -74 14q-51 10 -80 11q-4 0 -10 -1t-8 -1q-2 -16 -23 -113v-350zM399 1296q14 -57 27 -100q18 -68 18 -76q-10 -51 -10 -65v-2q0 -2 -1 -11.5l-3 -28l-4 -38.5v-12q0 -33 20 -52h31q4 0 94 27q59 20 121 33q20 12 49 26 q25 0 58 7q262 90 340 122q197 78 358 185q172 111 172 149q0 29 -94 53q-82 20 -121 21q-457 0 -1055 -238zM1102 135q4 -8 8 -20h37l-10 39q-19 -7 -35 -19zM1464 270q0 -8 25 -28q0 18 14 30h-37z" />
<glyph unicode="C" horiz-adv-x="2140" d="M37 590q0 68 57 201q23 59 152 174q172 156 307 219q440 203 702 256q27 12 74 24l318 47l6 2q6 2 18 6.5t27 8.5q45 14 51 14q53 0 100 -37q45 -37 45 -80q0 -27 -22 -65q-16 -12 -55 -33q-104 -4 -242 -22q-74 -25 -113 -35l-276 -66q-205 -51 -600 -272 q-61 -33 -121 -70q-111 -68 -176 -213q-10 -27 -10 -110q0 -96 116 -179q106 -76 226 -96q2 0 13 -2t28.5 -6t37.5 -10q68 -18 72 -19l57 4q74 4 82 5q16 0 66 -9l57 -8l90 12q96 14 113 15l821 53h4q35 0 43 -33q0 -2 1 -9t2 -23.5t1 -34.5q-8 -8 -49 -33 q-369 -106 -506 -107q-3 0 -30 7l-15.5 4l-11.5 3l-4 1q-4 0 -39 -14.5t-41 -14.5q-143 -6 -276 -14q-37 -12 -50 -13q-6 0 -20 8.5t-16 8.5q-6 0 -37 -12l-31 -11q-8 -2 -88 -2t-207 27q-16 4 -201 41q-53 8 -53 45v2q-92 33 -133 65q-145 109 -244 273q0 29 -6 82 q-12 49 -14 51v-6z" />
<glyph unicode="D" horiz-adv-x="2170" d="M25 1436q0 51 79 94q27 16 197 63q223 61 324 62h706q20 -6 62 -17q66 -16 69 -16q94 -6 170 -20q160 -27 342 -146q195 -125 242 -242q16 -29 37 -88q27 -78 26 -98v6q-2 0 -14 -143l-10 -10.5t-12 -14.5q4 -8 4 -10q0 -74 -86 -145l-27 -15q-18 -12 -18 -18 q0 10 -21 24q-18 -12 -59 -45q6 -4 26 -14q0 -4 -43 -45v-2q-14 14 -26 35h-27q-12 -10 -88 -78q12 -12 29 -12q14 0 22 8q-35 -61 -74 -66q-2 6 -16 23q14 4 29 14v25q-3 6 -19 6l-350 -186q-2 0 -10 4l-8 4q-8 -4 -27 -17l-235 -77q-127 -43 -172 -97q14 -12 30 -12 q4 0 64 18q61 16 63 17q16 0 35 -6l-233 -101q-33 0 -58 -4q-109 -41 -207 -67q-326 -90 -471 -90q-20 0 -77 26q-53 27 -72 51q-20 27 -21 68q0 43 90 80l13 -4q6 -4 10 -4q18 0 41 14q70 6 147 20q84 16 121 33q-47 385 -47 465v2q0 2 2 22.5t7 66.5t12 95q20 176 24 293 q4 14 17 33q-4 8 -5 27q0 12 3 20q0 12 38 156q14 4 33 14q-31 20 -47 21q-6 0 -217 -50l-215 -47q-28 0 -68 43q-34 40 -34 54zM666 1442q0 -29 16 -51q25 -16 43 -39q20 -63 20 -119v-6q0 -29 -20 -185q-27 -205 -29 -272l-14 -321q0 -2 29 -175q23 -8 30 -8q55 0 418 137 q326 121 434 175q213 100 402 270q88 80 88 141l-12 103q-8 4 -11 12q-23 96 -176 207q-100 72 -207 98q-158 39 -532 64q-35 12 -39 12q-16 0 -39 -15q-182 1 -401 -28zM821 115q49 10 82 10h4q-6 0 -26.5 6t-26.5 6q-33 1 -33 -22zM1253 203q0 23 31 22v-2q0 -6 -31 -20z M1366 258v33l51 -8q0 -7 -51 -25zM1444 291q14 49 100 74l121 38q15 -12 25 -12l-43 -18q-37 -18 -45 -19q-49 0 -54 -4q9 -6 31 -6q-37 -22 -135 -53zM1718 416q55 25 56 28h-5l7 -8q-8 0 -25 -14q0 -4 8 -6h-41z" />
<glyph unicode="E" horiz-adv-x="2011" d="M45 106q0 6 43 136q55 164 66 200l53 185h-2q-6 0 -45 63q0 27 -21 74q45 27 127 98q16 23 74 236v-4q-2 4 -2 51l12 14q12 12 12 25q0 18 -40 41q-31 18 -66 18h-4q-20 68 -21 100q0 51 60 74q125 45 301 45q3 0 12 -6l10 -4l62 23q424 20 641 34l401 25q28 0 166 -55 q6 -2 74 -2q35 -2 57 -25q-61 -29 -94 -29h4q-8 -6 -59 -14h2q-8 2 -80 2q-10 -2 -27 -8q-27 -10 -28 -10q-94 -6 -224 -27l-282 -41l-2 1q-2 1 -6.5 2t-8.5 1l-20 4q0 -3 -578 -98q-80 -98 -110 -348q39 -23 90 -23q6 0 29 8q27 10 28 11q14 -4 43 -15q113 0 492 11l309 10 h6q39 0 45 -21l17 -75q-57 -39 -222 -78q-145 -35 -397 -35q-166 0 -479 -43q-37 -6 -45 -47l-12 -51q-70 -180 -70 -234v-45q4 0 14 -3l17 -5l770 104q22 0 135 6l16 3l115 8q12 0 33 -15q14 -2 147 -2q10 0 57.5 8.5t55.5 8.5q55 0 131 -29q18 -61 20 -63q2 2 2 4 q0 -31 -41 -66q-39 -33 -75 -33q-10 0 -25 4q-6 0 -12 1.5t-10.5 2.5t-6.5 1q-4 0 -47 -14.5t-49 -14.5l-420 -37q-152 -14 -497 -70l-316 -49q-18 0 -145 31q-113 27 -146 27h-2q-12 34 -12 38z" />
<glyph unicode="F" horiz-adv-x="1347" d="M29 608q4 14 34 82q29 70 72 70q8 -2 22.5 -4t28.5 -2q53 0 74 59q8 59 10 80q31 113 66 192q-8 12 -92 52q-68 31 -68 88q0 55 60 80q84 16 178 38q16 8 47 27q49 27 53 27q23 0 43 -15q10 0 27 2q6 0 12 1t9 2.5t5 1.5l516 59q123 0 127 -4q-18 -6 -34 -6q6 0 45 8 q29 6 47 6q10 0 28.5 -2t30.5 -2q4 0 29 6q10 2 21 7l5 1q115 0 115 2h-2q-18 2 -39 2q82 0 266 -43q49 -47 50 -94q-2 -16 -5 -36q-2 -18 -2 -19q-117 10 -417 10q-10 0 -25 -6l-25 -10q-2 0 -28 6q-8 0 -15.5 1t-11.5 2t-6 1l2 -2q-20 -6 -61 -14.5t-250 -26.5l-41 -10 q-10 -2 -19.5 -5t-13.5 -4.5t-6 -1.5q-10 0 -23 3q-6 1 -15 2q-6 1 -7 2q-8 -2 -36 -10.5l-88 -26l-118 -33.5q-18 -6 -49 -76q-6 -27 -20 -78q-49 -119 -70 -184v-53q23 -2 76 -2q135 0 333 24q113 14 418 29l19 -18q31 18 53 18q0 -6 41 -27v-28q0 -16 -21 -66 q-12 -2 -62 -8t-91 -12q-160 -25 -160 -31h8q-2 0 -4 1t-6 2t-8 1t-8 1t-7 2l-4 1q-6 0 -30 -18q-25 -20 -25 -21q-18 -6 -301 -49q-49 -8 -65 -12q-47 -10 -52 -10q-37 0 -143 -7q-16 -4 -41 -32q-10 -78 -20.5 -152t-18.5 -139q0 -4 1 -12.5t1 -14.5q0 -47 -2 -80 q-2 -90 -61 -90q-2 0 -12.5 4t-18.5 9q-90 16 -133 53l55 452z" />
<glyph unicode="G" horiz-adv-x="2226" d="M27 588q0 129 43 237q31 74 129 246q100 123 178 184q152 117 325 222q49 14 168 53q51 27 142 59q365 84 401 84q10 0 29 -8l24 -8l3 1q3 1 7.5 2t10.5 1t10 1t7 2l3 1q135 0 135 -115q0 -102 -59 -102q-18 0 -82 10q-76 12 -84 12q-43 0 -186 -38q-45 -6 -162 -29 q-27 -18 -74 -41q-199 -68 -393 -205q-246 -170 -317 -352q-61 -96 -62 -180q0 -66 74 -152q70 -82 168 -127q27 -25 100 -59q4 -2 27.5 -7.5l62.5 -14.5l82 -19q104 -25 170 -25h140q113 0 364 45q221 39 262 53l176 64q109 37 146 78q20 20 20 76q0 37 -30 81 q-33 49 -64 66q-41 29 -162 84q-61 14 -241 20q-4 16 -31 35l-207 11h4q0 -3 -147 -19q-31 -4 -60 -29q-31 29 -30 64q0 23 30 45q66 39 92 43q203 37 349 37q43 0 61 -2q4 0 41 6l19.5 4l14.5 3l5 1q104 -31 110 -31h5q150 0 270 -100q180 -147 180 -410q0 -10 -16 -28 q0 -33 -19 -88q-111 -132 -307 -185q-53 -16 -334 -84q-25 0 -75 -6q-47 -20 -60 -20q-6 0 -24.5 8t-22.5 8h2q-6 -4 -65 -20q-127 -35 -211 -35q-422 0 -715 180l-207 154q-143 217 -143 258z" />
<glyph unicode="H" horiz-adv-x="1640" d="M43 436q0 170 20 281q12 76 56 219q41 55 90 143q37 96 49 119q27 59 51 80q18 -18 78 -18l31 -160q0 -4 -53 -117q-51 -109 -52 -113v-55q12 -4 82 -12q2 0 8.5 -1t10.5 -1q10 0 55 4q18 0 34.5 1t23.5 2l8 1q10 0 28 -6l27 -10h237q129 12 156 12h84l115 -2l133 -2 q66 0 82 117q0 8 5 39.5t7 56.5q12 80 39 153q53 141 131 252q16 25 66 68q47 41 61 41q4 -2 43 -23q41 -92 41 -137q0 -47 -59 -131q-147 -212 -191 -627q-8 -76 -35 -299q-12 -120 -18 -233q-4 0 -12 -8q0 -12 -1 -35t-4 -35q-10 -41 -28 -59q-35 -10 -39 -11 q-34 0 -86 74q-14 20 -14 64v18l38 604q-4 2 -18 2q-12 0 -51 -18l-55 -27q-195 -49 -408 -49q-20 0 -61 2q-59 6 -66 6q-23 0 -113 -10l-110 -12l-41 2q-12 0 -23.5 1t-16.5 2t-7 1q-92 0 -101 -12q-49 -80 -49 -181q0 -4 1 -10t1 -8v-41q0 -133 -43 -174q-137 18 -137 272 z" />
<glyph unicode="I" horiz-adv-x="448" d="M59 303q0 793 158 1065q86 147 141 148q78 0 78 -160q0 -25 -45 -238q-49 -233 -80 -332l-26 -159q-37 -213 -109 -557q-12 -8 -49 -35q-25 20 -47 43q-21 35 -21 225z" />
<glyph unicode="J" horiz-adv-x="1605" d="M43 461q0 31 57 82h35q31 -61 76 -88l129 -62q78 -47 215 -108q129 -39 219 -39h19q18 0 38 2q51 0 95 2l135 2q41 0 102 55q14 12 72 113l22 22q49 141 56 195l20 151v187q0 117 -41 426q-3 3 -30 61q-23 45 -23 72q0 51 14 59l84 64q66 -41 113 -223q16 -70 41 -314 q20 -217 20 -270q0 -55 -18 -78q12 -49 12 -102q0 -61 -63 -334q-27 -113 -113 -205q-125 -129 -416 -129q-281 0 -530 125q-139 70 -279 209q-61 62 -61 125z" />
<glyph unicode="K" horiz-adv-x="1540" d="M43 90q0 10 4 27q2 10 7 21l1 5v144q43 264 213 817q2 4 33 47q4 4 4 14.5t-6 22.5q23 82 35 104q39 76 106 121q8 -8 21 -8q10 0 18 8q57 -90 58 -164q0 -51 -39 -147q-100 -256 -121 -414q-12 -8 -35 -39q-27 -115 -129 -604q-35 -23 -113 -59zM399 676q10 16 33 43 q2 14 19 47q47 59 266 203q8 8 57 53q45 31 291 170q53 16 139 51l176 105q168 96 219 96q29 0 48 -43q12 -31 12 -45q0 -78 -25 -94l-583 -347l-168 -94q-213 -125 -213 -190q0 -39 96 -94q76 -43 115 -56q248 -70 585 -178q43 -16 43 -51q0 -88 -176 -88q-74 0 -182 29 q-31 2 -94 12q-444 125 -586 321q-39 57 -47 101q-18 47 -25 51v-2z" />
<glyph unicode="L" horiz-adv-x="1886" d="M35 193q31 117 31 139q2 27 12 94q23 63 100 299q10 14 41 66q27 70 119 290q31 72 231 435q16 8 41 32l72 103q51 70 94 69q23 0 47 -26l25 -115q0 -6 -4 -43l-86 -104q-12 -31 -103 -193q-18 -18 -47 -63q-70 -141 -202 -447q-2 -8 -9.5 -35.5l-17.5 -66.5 q-27 -41 -70 -129q-41 -145 -41 -179q0 -74 209 -73q20 0 322 30l319 33q4 0 35 -6q6 0 11 -1t9.5 -1t7.5 -1t5 -1h2l7 2q7 2 21.5 5t28.5 7q52 12 55 13h-4l164 -7q187 -6 234 -6l161 -47v-45q-45 -27 -98 -71q-88 -27 -129 -27q-90 0 -397 -33q-295 -33 -397 -43 q-82 -23 -132 -27q-147 -18 -288 -18q-82 0 -207 43q-65 22 -105 55q-67 62 -67 93z" />
<glyph unicode="M" horiz-adv-x="1953" d="M37 182q0 51 178 363q160 283 303 502q2 18 17 51l278 385q2 0 6 1t6 1q53 0 107 -41q55 -47 55 -101v-194q-6 -6 -14 -16q-2 -10 -21 -289l-10 -160v2l10 -156q6 -6 19 -6q22 0 61 49q18 23 43 60l187 260l243 332q182 252 344 397l88 102q37 -8 113 -34l31 -56 q29 -51 28 -53q0 -35 -38 -190q-49 -76 -72 -123q-31 -129 -64 -226l-73 -217q-18 -123 -39 -209q-57 -242 -58 -315q0 -2 18.5 -112.5t18.5 -114.5t-10 -45q-18 -12 -43 -13q-14 0 -57 31t-56 51q-47 82 -47 260v50q-6 27 -10 26v-2q0 10 8 43q8 35 12 64q31 223 140 530 l-10 27l49 147q-59 -39 -181 -203q-18 -43 -51 -102q-98 -174 -409 -582q-12 -14 -97 -92q-98 -88 -127 -88q-158 0 -157 459v405q-31 -14 -140 -174q-2 -8 -23.5 -49l-77.5 -150.5l-109 -211.5l-197 -379q-16 -35 -55 -35q-117 0 -117 141z" />
<glyph unicode="N" horiz-adv-x="1748" d="M37 389l325 664l17 29l60 115l87 165q10 31 54 131q39 88 106 88q43 0 82 -39q59 -59 78 -102q84 -184 147 -375l64 -236q4 -4 10 -14t10 -16q37 -123 60 -176q41 -117 100 -209q31 39 90 155q80 158 162 351q25 96 119 366l47 60q6 47 8 55q6 12 10 19t14.5 23.5 t22.5 39.5q35 27 62 57q16 45 47 88q4 2 24 2q70 0 70 -57q0 -23 -72 -189v-10q0 -43 -6 -71l-39 -113q-25 -49 -86 -193q-18 -40 -55 -178q-6 -46 -25 -129l-108 -239q-61 -133 -78 -236q-35 -92 -35 -104q0 -14 8 -25q-10 -4 -80 -35q-51 -25 -59 -24q-20 0 -59 24 q-39 23 -52 43q-63 98 -229 506q-18 78 -47 170q-14 23 -39 82q-2 49 -16 104q-18 74 -125 295q-47 -18 -86 -116l-109 -261q-55 -88 -170 -305q-31 -86 -98 -235q-33 -27 -64 -72q-10 -2 -26 -2q-37 0 -80 45q-41 43 -41 84z" />
<glyph unicode="O" horiz-adv-x="2179" d="M25 735q0 4 14 45q12 43 12 47q2 23 15 115q37 52 79 123q39 61 209 238q6 8 60 24q12 10 45 35q6 4 207 70l102 32q395 61 600 62q415 0 682 -191q176 -127 176 -401q0 -66 -8 -123q25 -8 25 -27l-66 -102q0 -2 10 -16q-4 0 -43 -97q-18 -18 -30 -32 q-104 -170 -547 -396q-100 -49 -316 -110q-246 -70 -360 -70q-63 0 -244 62q-385 129 -514 319q-108 157 -108 393zM195 721l14 -10q-4 -29 -4 -41q0 -231 231 -369q209 -123 483.5 -123t684.5 217q461 244 460 490l1 4q1 4 4.5 12t5.5 17q8 27 8 32q0 86 -80 193 q-43 57 -219 133q-168 72 -273 72l-5 -1q-5 -1 -14 -2.5t-19.5 -1.5t-19.5 -1t-14 -2l-5 -1q-6 0 -68 13l-63 12q-4 0 -39 -12l-35 -13q-35 -4 -103 -8l-100 -6h-2q-4 0 -25 6q-8 2 -18 6l-6 2l-78 -39l-197 -47q-143 -33 -213 -94q0 -2 13 -39q0 -18 -86 -78 q-74 -31 -148 -137q-71 -104 -71 -184z" />
<glyph unicode="P" horiz-adv-x="1433" d="M43 1270q0 12 27 57q25 41 43 55q49 23 110 58q2 0 14.5 3t22.5 5q47 35 186 70q205 49 328 65q197 23 244 23q125 0 358 -76q39 -10 56 -45q25 -4 55 -15q39 -35 76 -88q51 -100 51 -139q0 -86 -35 -133q-205 -274 -819 -459q-2 -4 -19 -18q-43 -14 -309 -88 q-74 -20 -88 -72q0 -12 -1 -39.5t-1 -42.5q-4 -156 -33 -276q-6 -59 -24 -109h-35q-27 14 -53 53q-29 39 -35 70l-2 199q-12 141 -66 182q-4 4 -4 47q0 47 23 51q39 6 67 60l43 200q14 25 31 64q53 242 145 348v2q0 16 -30 16q-53 -18 -179 -81q-6 -2 -22 -29 q-41 -18 -47 -19q-35 1 -78 101zM399 741h58q29 0 489 172l41 25q43 23 397 236q41 82 41 86q0 68 -145 122q-123 47 -186 48q-100 0 -263 -21q-72 -20 -141 -35q-82 -2 -284 -71q113 -39 112 -105q0 -39 -92 -280q-9 -75 -27 -177z" />
<glyph unicode="Q" horiz-adv-x="2160" d="M45 754q0 184 70 348q68 160 180 231q22 15 98 37q68 20 88 21q3 0 25 -13q25 -14 24 -14q10 6 18.5 12l29 21.5l51.5 38.5q104 78 172 100q174 57 338 57q2 0 28 -10q45 8 76 8q6 0 22.5 -1t26.5 -1v-4q0 -8 17 -8q10 0 12 12q29 4 129 4q221 0 356 -53 q205 -84 320 -305q0 -14 6 -39q29 -59 29 -162q0 -207 -84 -416q-27 -68 -127 -169q-86 -92 -95 -105q0 -2 84 -104.5t84 -108.5q0 -14 -16 -41t-27 -27q-2 0 -16 9q-16 10 -20 10q-33 0 -269 147q-35 -14 -106 -47q-117 -53 -180 -78q-322 -121 -345 -120q-6 0 -20 -1 t-41 -3.5t-51 -4.5l-117 -8q-18 0 -166 33q-94 20 -160 39q-90 41 -153 119q-12 6 -31 12q-174 166 -229 434q-6 18 -19 80q-12 54 -12 70zM197 780q0 -365 284 -520l6 -2q2 0 6 1l3 1q132 -74 350 -74q123 0 198 21q43 22 130 55q109 23 296 113q16 10 17 37 q-66 49 -262 213q-10 27 -47 80q-2 4 -2 24q0 109 51 109q25 0 127 -66q25 -31 182 -166q121 -102 147 -102q94 0 291 272q6 9 37 98q31 88 31 103q0 154 -64 240q-63 88 -221 141q-139 51 -153 51h-238q-8 0 -26.5 8t-22.5 8q-39 -12 -47 -16q-57 -4 -246 -4l-20 -12 q-18 -10 -25 -11l-8 4q-6 4 -13 5q-16 0 -106 -37q-96 -41 -154 -82q-135 -102 -241 -275q0 -6 -21 -65q-8 -23 -8 -45q0 -14 4 -31q-16 -31 -26 -57v-6q0 -6 14 -72q-16 -53 -27 -78q-6 2 -26 43q-16 33 -17 49v248l17 72q18 72 18 90q-20 0 -41 -12q-86 -111 -115 -170 q-32 -77 -32 -183z" />
<glyph unicode="R" horiz-adv-x="1689" d="M70 1194q0 106 57 172q43 49 182 143q14 8 260 58q258 47 342 47q200 0 381 -19q6 -6 45 -18q92 0 224 -107q129 -104 149 -194q0 -4 14.5 -30.5t14.5 -33.5l1 -6q1 -6 3 -16t4 -23q4 -29 4 -47q0 -84 -119 -252q-27 -37 -159 -100q-23 -29 -125 -94q-68 -22 -197 -68 q-49 -29 -127 -65l-203 -33q-152 -25 -151.5 -61.5t131.5 -129.5q98 -72 145 -92l357 -162l172 -57q117 -53 118 -123q-18 -33 -55 -33l-39 7q-10 2 -21.5 4l-17.5 3t-8 1q-135 0 -254 53q-6 0 -227 105l-135 86q-72 47 -107 92q-16 0 -37 6q-35 53 -182 143 q-127 80 -127 125q2 4 4 11.5t10.5 28l22.5 54.5q106 23 506 119q4 0 151 35q82 20 273 149q244 166 243 275q0 98 -86 178t-207 98q-68 25 -69 25h-74q-23 0 -59.5 1t-46.5 1h-123q-14 0 -15 -2q0 -12 -2 -14q-10 0 -27.5 1t-23.5 1q-70 0 -92.5 -6.5t-161.5 -63.5 l-141 -39q-74 -35 -84 -65q-58 -190 -80 -455q4 -74 4 -166v-37q-2 -2 -5 -11t-7 -19.5l-8 -20.5q-23 -100 -23 -168q0 -6 1 -17.5t1 -17.5l6 -63q2 -25 2 -111q0 -156 -59 -156l-41 17q-41 14 -49 14q-23 117 -23 371q0 10 19 164q18 188 41 336q23 70 43 161v47 q-16 16 -21 17l-30 -14q-29 -14 -37 -15q-20 0 -35 35q-10 18 -10 41z" />
<glyph unicode="S" horiz-adv-x="1331" d="M-4 109v6q18 12 49 30q578 131 877 256q205 86 204 144q0 47 -75 92l-113 65q-92 55 -221 109q-215 86 -232 94q-61 29 -235 160q-217 162 -217 231q0 14 30 47l46 54l67 26q10 4 30.5 13.5t53.5 21.5q96 25 395 62q68 10 187 20q175 18 295 19q252 0 252 -101 q0 -78 -109 -78q-14 0 -82 9l-80 8q-18 0 -90 -8l-102 -15h-23h-39q-16 0 -31.5 1t-23.5 2t-12 1q-41 -4 -226 -24q-53 -12 -194 -33q-51 -2 -103 -35q6 -14 31 -51q63 -51 166 -127q49 -31 158 -78q10 -8 63 -43l23 -8q160 -61 424 -191q96 -45 159 -133q61 -86 62 -174 q0 -51 -60 -98q-88 -70 -104 -88q-29 0 -74 -4q-70 -47 -75 -47l-9 4q-8 4 -14 4q-33 0 -182 -59q-125 -51 -271 -82l-16 -15q-14 -14 -33 -14l-2 1q-2 1 -6 2t-10 1t-13 3q-7 2 -10 1l-13 -3l-45 -10t-65 -16q-115 -27 -125 -26q-72 0 -159 -17q-29 12 -54 43 q-24 30 -24 48z" />
<glyph unicode="T" horiz-adv-x="1576" d="M104 1341q0 63 50 72l288 41l590 35q6 0 76 16l66 17l32 -17q27 -16 37 -16l922 43q8 0 88 -21q25 -6 47 -12t32 -8l9 -2l3 1q3 1 7 2t8 1t11 2q8 2 10 2q68 0 106 -57q-18 -47 -123 -47h-235l-14 -2q-14 -2 -48 -7.5l-71 -11.5q-70 -10 -92 -10q-6 0 -20.5 8t-16.5 8 q-238 -23 -283 -22q-4 0 -25.5 -2t-81 -8.5l-114.5 -12.5q-94 -12 -102 -14q-57 -18 -82 -62q-86 -150 -160 -544q-16 -80 -33 -217l-10 -97q-20 -39 -49 -137v-6q0 -55 -25 -158q-49 -82 -96 -82q-96 0 -96 80q0 10 32 111q0 4 3.5 22.5t6.5 46t7 58.5q4 4 11 19.5t11 23.5 q2 66 6 88q8 47 31 65v15q0 111 53 286l150 484q-16 12 -33 12q-250 0 -375 -16q-53 -8 -237 -47q-150 -31 -162 -31l-86 35q-23 38 -23 73z" />
<glyph unicode="U" horiz-adv-x="2093" d="M35 870l12 13q-3 55 -6 80q18 94 86 247q100 223 197 224l75 -60q-14 -16 -20 -74q-66 -41 -90 -104l-41 -113q-43 -84 -43 -174q0 -219 28 -323q14 -57 72 -156q41 -70 109 -119q96 -70 112 -78q33 -16 111 -16h119q33 0 241 72q203 68 226 84l180 121l272 231 q2 4 133 199q43 66 90 174q41 98 41 116v199v92q-4 -8 -4 -30q2 49 58 49q8 0 86 -33q0 -8 10 -74l10 -57q0 -8 -8 -27q-10 -23 -10 -22q0 -90 4 -94l4 4q-18 -76 -78 -211q-68 -157 -86 -209q-2 -2 -9 -11.5t-18 -21.5q-10 -51 -26 -78l-170 -203q-31 -25 -154 -114 q0 -2 -2 -7.5t-4 -14.5t-6 -17l-176 -111q-117 -72 -209 -96q-12 -20 -45 -43q-125 -51 -209 -51q-4 0 -12 -1t-24.5 -2t-33.5 -1l-71 -4q-137 0 -320 73q-201 82 -250 178q-109 217 -127 332q-24 153 -24 262z" />
<glyph unicode="V" horiz-adv-x="1333" d="M86 1419q0 28 12 31q41 12 54 12q82 0 96 -14q23 -23 55 -162l3 -6q3 -6 7 -10q31 -117 88 -221l117 -289q10 -18 17.5 -29.5t21.5 -35l33 -56.5q18 -74 104 -246q16 0 29 15q3 28 31 104q14 29 125 233l16 31q80 147 209 344q88 135 297 346q115 117 155 117 q23 0 56 -27q35 -27 35 -45q0 -29 -131 -184q-20 -6 -27 -14q-12 -51 -80 -80v-10q0 -23 -31 -52l-59 -53q-33 -45 -92 -96q-2 -27 -53 -102q-22 -15 -50 -50q-2 -12 -26 -75q-16 -16 -45 -62q-4 -35 -39 -137q-14 -10 -39 -41q-8 -29 -115 -367q0 -53 -2 -96 q-16 -6 -115 -65q-2 0 -38 10q-47 68 -132 211l-163 356q-12 29 -84 217q-14 18 -50 82q-10 10 -49 84q-4 37 -14 80q-43 47 -43 115z" />
<glyph unicode="W" horiz-adv-x="1886" d="M35 1217q0 29 41 65l37 -12q35 -18 65 -56q33 -76 55 -213l27 -172q2 -20 10 -51q8 -23 92 -319q20 -68 44 -107h2q22 0 43 37l65 109l62 135q35 16 63 84q43 96 74 151l127 207q23 23 67 23q76 0 138 -133q10 -8 28 -41l64 -168l104 -201q18 -47 41 -100q23 -49 53 -76 q23 0 31 14q127 215 397 596q10 25 52 90q77 123 215 301q16 16 63 90q41 63 80 80l2 2q4 0 31 -45l-170 -268q-33 -41 -45 -72q-31 -74 -80 -149q-154 -240 -215 -363q-12 -23 -41 -102q4 -8 4 -14q0 -4 -4 -13q-115 -178 -117 -184q-47 -84 -72 -178q-12 -6 -59 -33 q-12 -31 -72 -76q-27 16 -39 27q-78 123 -192 358q-37 119 -84 224q-37 33 -76 161q-4 14 -31 29q-57 -23 -57 -68q-41 -117 -121 -211v-6q0 -8 15 -8q-59 -66 -70 -106q-20 -104 -84 -203q-31 -49 -111 -166q-12 -14 -102 -53h-31q-31 31 -73 98q-23 59 -56 199l-45 196 q-31 74 -51 138q-31 106 -66 337q-28 185 -28 216z" />
<glyph unicode="X" horiz-adv-x="1775" d="M35 229q0 88 22 117q46 61 74 154q31 33 207 196q4 4 170 121q133 94 133 121q0 23 -182 137q-115 72 -262 187q-23 29 -23 86v22q16 14 90 33l547 -363q33 10 84 43q63 43 96 60q195 78 541 250q6 0 47 4q66 33 156 33q160 0 159 -74q0 -33 -45 -78q-143 -14 -256 -53 q-43 -27 -86 -45q-537 -217 -536 -269q0 -12 84 -84l143 -120q16 -29 62 -95q37 -25 108 -90l12 -20q12 -20 23 -43q20 -14 57 -58q45 -70 144 -208q27 -12 53 -43q12 -28 12 -68q0 -18 -31 -43q-29 -23 -53 -23q-12 4 -67 21l-15 22l-321 390q-172 207 -314 335h-10 q-104 0 -250 -104q-184 -102 -309 -244q-61 -70 -113 -184q-12 -186 -63 -186q-47 0 -72 71q-16 47 -16 92z" />
<glyph unicode="Y" horiz-adv-x="1079" d="M59 1214q0 74 31 148h80q3 -6 55 -43l29 -215q59 -201 215 -201q129 0 393 197l365 266q45 31 75.5 31t63.5 -39q31 -35 31 -51q0 -39 -41 -88q-14 -18 -144 -148q-135 -135 -198 -207q-2 -2 -144 -159l-172 -185q-41 -59 -168 -260q-9 -15 -36 -80l-29 -86 q-31 -78 -66 -78q-33 16 -104 58q0 4 -1 8t-1 8q0 25 6 60q119 256 184 356q10 16 52 41q3 12 6 31q18 31 114 139q0 10 13 28q-12 14 -52 15q-6 0 -102 -21q-94 -20 -102 -20q-72 0 -142 45q-71 46 -104 110q-66 137 -92 242q-15 57 -15 98z" />
<glyph unicode="Z" horiz-adv-x="1765" d="M37 190q0 68 61 115q37 20 115 68q12 18 47 53l154 102l166 123q187 83 448 271l225 163q86 72 195 177q-53 35 -387 34l-514 -47q-166 0 -228 37q0 6 -30 92q0 74 51 74q3 0 80 -12q63 -10 80 -10l61 12q72 16 96 16q8 0 45 2t118 5t167 8l215 10q6 0 18.5 1t20.5 1 q96 0 250 -27q68 -20 111 -26q106 -14 106 -101q0 -84 -127 -192q-98 -84 -139 -111l-101 -63l-77 -60q-2 -2 -113 -80q-164 -117 -471 -313q-221 -141 -375 -266q43 -51 221 -51q31 0 154 8l154 10h-3q0 3 50 12q18 2 95 11.5l206 25.5q121 14 311 14q106 0 147 -34v-29 q-35 -27 -77 -43l-281 -20q-55 -14 -205 -39l-9 -8q-9 -7 -17 -11q-96 -27 -209 -41q-131 -18 -226 -22l-36 -2h-273q-57 0 -229 43q-41 32 -41 120z" />
<glyph unicode="[" horiz-adv-x="862" d="M88 -72v-2q12 80 31 238q12 125 51 493q8 53 27 377q2 29 4 62.5t3 52t1 29.5q0 156 4 389q2 8 5 19t7 29.5t6 31.5q14 12 78 18l90 8q70 23 207 56q49 12 88 12q37 0 47 -15q39 -61 62 -127v-26q-117 -39 -342 -80q-33 -6 -49 -27q-4 -195 -13 -272q-3 -22 -24 -221 q0 -139 -6 -268q-2 -59 -23 -304q-16 -209 -16 -315v-39q72 -6 131 -6q68 0 96 4l225 33q31 0 43 -60q10 -63 10 -67q-80 -53 -245 -82q-8 -2 -81 -14.5l-134 -22.5q-20 0 -52 -6q-6 -2 -24 -2q-27 0 -45 2l-55 6h-50q-57 0 -57 96z" />
<glyph unicode="\" horiz-adv-x="1464" d="M74 -90q0 51 55 211q45 135 66 174l135 240q57 100 315 466q63 92 229 310q16 23 273 272q156 152 186 152q14 0 37 -70q18 -59 19 -78q0 -55 -39 -100q-16 -16 -60 -66q-18 -35 -53 -82q-254 -229 -406 -436q-559 -758 -618 -1120h-94q-2 14 -25 63q-20 41 -20 64z" />
<glyph unicode="]" horiz-adv-x="976" d="M45 -141v-6q0 37 18 79q72 29 283 48q84 8 105 8q49 -8 59 -8q55 0 55 20q-4 33 -4 72q35 123 60 258q6 219 49 518l88 604q0 8 -2 12q-40 31 -142 31q-25 -6 -39 -6q-15 0 -36 12l-136 15q-129 16 -129 133q0 88 76 88l514 -41q84 -6 84 -207q0 -100 -78 -594 q4 -16 4 -43q-63 -494 -63 -690v-8v-13q0 -82 -10 -159q-25 -178 -35 -197q-29 -66 -111 -66l-178 21l-178 20l-4 -1q-4 -1 -10 -2t-13 -1q-8 -1 -18 -3q-5 -1 -6 -1q-2 0 -51 6q-33 4 -56 4q-18 25 -30 37l-56 29q-6 27 -10 31z" />
<glyph unicode="^" horiz-adv-x="768" d="M74 1454q0 25 41 53q10 8 28.5 19.5t24.5 15.5q2 2 102 121q68 80 115 80q12 -6 66 -49l79 -68q2 -4 5.5 -12t5.5 -12q63 -49 135 -127q39 -49 39 -74q0 -18 -8 -35q-2 -8 -39 -8q-55 0 -93 12q-166 172 -188 172l-115 -102q-115 -100 -133 -101q-49 0 -59 31l2 -2 q2 6 2 57q-10 27 -10 29z" />
<glyph unicode="_" horiz-adv-x="2762" d="M55 -238q43 -41 68 -47q43 -12 119 -12q63 12 104 16q33 2 359 2h26l55 -2h86q0 -2 72 -4l72 -2l457 -4h38q250 0 531 19l256 16h213q113 0 125 -6q8 6 63 41v6q0 31 -24 113q-58 49 -289 49l-57 -4q-86 -2 -150 -6l-233 -7l-463 7h-142l-268 -3h-78q-113 0 -178 3 q-2 0 -91 3l-153 5q-39 10 -38 10h-261q-168 0 -208 -43q0 -8 -7 -76q-4 -45 -4 -74z" />
<glyph unicode="`" horiz-adv-x="735" d="M43 1577q0 70 39 70q27 0 102 -35l244 -111l221 -104q29 -39 29 -60q0 -31 -29 -77q-242 61 -596 247q-10 7 -10 70z" />
<glyph unicode="a" horiz-adv-x="1118" d="M49 217q0 61 41 168q10 29 60 49l61 29q217 133 395 133q49 0 133 -31q27 -10 60 -69q35 -57 35 -88q0 -51 -60 -89q-127 70 -190 70q-76 0 -154 -37q-98 -47 -156 -100q6 -31 70 -31h-4q0 8 133 49q158 49 236 49q20 0 147 -106q129 -109 199 -145q23 -20 22 -31 q0 -39 -20.5 -67.5t-48.5 -28.5q-37 6 -226 104l-59.5 31.5l-41.5 22.5t-15 7q-37 0 -117 -34q-68 -31 -119 -52q-63 -20 -131 -20q-84 0 -207 111q-43 61 -43 106z" />
<glyph unicode="b" horiz-adv-x="1236" d="M43 70q0 14 51 45l56 32q0 14 -37 76q-23 39 -23 88q0 9 12 92q12 84 13 97q0 35 -49 78q0 4 -13 45q-10 33 -10 43q0 31 102 94q6 72 15 117q57 324 139 589q23 63 100 88q41 -20 88 -163q-6 -25 -26 -86l-41 -121q0 -12 -21 -191q0 -2 -3 -11t-7 -28.5t-10 -38.5 l-19 -69q0 -51 95 -51q367 0 569 -58q66 -18 131.5 -96t65.5 -137q0 -127 -230 -271q-205 -127 -327 -133q-10 -8 -48 -24q-37 -14 -157 -39q-272 -57 -328 -57q-29 0 -59 30q-29 29 -29 60zM272 299q35 -111 35 -125h37q49 20 160 53q154 45 340 131q184 86 184 152 q0 55 -192 88q-141 25 -252 25q-68 -16 -90 -17q-49 6 -76 6q-6 0 -13.5 -1t-9.5 -1q-53 -12 -71 -55q0 -6 -11 -61q-35 -197 -39 -197q-2 0 -2 2z" />
<glyph unicode="c" horiz-adv-x="1103" d="M43 242q0 76 31 131q47 80 168 176q55 41 147 82q180 76 256 76l5 -1q5 -1 14.5 -2.5t21.5 -1.5t22.5 -2l15.5 -3l5 -1q90 0 123 -22q31 -23 31 -90q-4 0 -31 -60q-18 -12 -53 -12l-29 4q-6 0 -13 1t-12 2l-4 1q-125 0 -395 -147q-66 -37 -90 -131q121 -86 254 -86h-2 q43 4 129 10l125 6l10 2q10 2 36 6l52 8q95 12 98 13q39 0 64 -19q2 -10 2 -28q0 -90 -102 -91q-1 0 -5 2q-5 2 -10 3l-16 4q-6 0 -60 -25q-51 -25 -69 -29q-166 -37 -240 -36q-2 0 -6 1t-11 2t-13 1h-19h-22q-29 -14 -50 -15q-102 0 -204 62q-104 63 -131 143z" />
<glyph unicode="d" horiz-adv-x="1509" d="M49 324q0 47 60 118q94 115 354 168q8 4 17 9.5t20 11.5q125 18 217 39q77 18 233 18q270 0 287 2q6 164 39 457q-15 43 -19 129q4 20 5 82q0 59 -2 100v35q0 121 18 170q12 35 88 35q14 0 47 -19q4 -33 6 -68.5t4 -47.5l2 -13v6q0 -408 -14 -516q8 -94 8 -174 q0 -111 -10 -311l-66 -100l-36 10q-61 6 -187 16l-186 17q-120 0 -320 -37q-221 -41 -249 -80q-4 -4 -57.5 -24.5t-53.5 -57.5q0 -14 33 -49q33 -33 59 -49q89 -49 203 -49q70 0 391 51l332 51h26q12 0 13 -21q0 -14 -25 -57q-23 -39 -43 -47q-68 -29 -340 -98 q-223 -57 -328 -58q-2 0 -11 -1t-17 -1q-41 0 -76 -2l-111 -4l-47 23q-23 0 -75 18q-76 55 -111 109q-29 47 -53 116q-25 71 -25 93z" />
<glyph unicode="e" horiz-adv-x="1038" d="M20 328q0 82 23 123q152 293 604 292q147 0 221 -67q61 -55 115 -129q6 -23 6 -68q0 -35 -2 -57q-9 -98 -43 -117q-68 0 -233 -22l-181 -25q0 -2 -94 -22q-14 10 -53 10l-16 -17q0 -29 211 -86q59 -4 133 -12q123 -15 123 -61q0 -12 -76 -52l-1 -1l-3 -3t-6.5 -6 t-12.5 -12t-18 -19q-72 -6 -72 -8h2q-4 0 -102 6l-105 9q-33 0 -108 34l-86 45q-86 31 -156 113t-70 152zM319 451q0 -18 11 -19h317q109 0 131 35q-16 51 -22 76q-4 10 -56 35q-88 -8 -245 -33q-33 -6 -84.5 -38.5t-51.5 -55.5z" />
<glyph unicode="f" horiz-adv-x="1331" d="M37 334q0 16 28.5 51t49.5 41q72 20 75 20q2 0 4 -1q3 -3 7 -3q6 -2 12 -2q57 0 72 11q47 31 53 129q27 549 477 854q59 41 131 47l115 16q29 4 172 4t266 -45q31 -6 100 -39q51 -35 60 -63q39 -127 39 -156q0 -35 -4 -55q2 -2 -8.5 -12.5t-10.5 -18.5q0 -4 19 -4l-56 -8 q-9 0 -67 55q-68 61 -113 88q-102 57 -325 57q-2 0 -8.5 -1t-20.5 -4t-29 -5l-51 -10q-141 -14 -342 -213q-40 -40 -98 -190q-63 -168 -64 -259q10 -92 10 -94q27 -12 72 -12l289 47q213 33 311 33q49 0 94 -27q-2 -25 -53 -67q-49 -43 -90 -58q-80 -10 -291 -47 q-100 -37 -305 -106q2 -41 41 -123q53 -59 53 -80q0 -23 -26 -68q-29 -47 -41 -47q-74 0 -160 142l-84 141q-188 -39 -201 -39q-43 0 -73 37q-29 35 -29 84z" />
<glyph unicode="g" horiz-adv-x="1071" d="M-520 -496q0 166 330 263q86 12 354 61q307 57 545 63q23 10 22 80v168q0 14 -2 15l-4 -9l-4 23q-12 123 -80 227q-6 0 -18.5 1t-16.5 1q-33 0 -53 -6q-184 -45 -217 -45q-4 0 -20.5 8t-22.5 8q-74 0 -129 44q-57 45 -58 94q0 76 48 141q53 78 149 102l129 31 q86 29 256 29q35 0 64 -17q2 0 7 1t7 1q23 0 53 -6q57 -27 58 -77q-16 -25 -35 -60q-86 14 -137 14q-83 0 -228 -49t-145 -80q4 0 13 -1t13 -1q68 0 164 31q37 12 160 12q49 0 70 -20q102 -119 122 -250l27 -160v-65q0 -57 -4 -62l-6 -4q0 -2 1 -6t2 -9l4 -19.5l7 -32.5 l4 -19.5t4 -15.5t3.5 -11.5t2.5 -8.5l1 -3q0 -2 -15 -28l-14 -27q-25 -244 -174 -532q-117 -141 -287 -240q-162 -94 -291 -94q-178 0 -372 112q-184 109 -248 222q-39 65 -39 206zM-334 -532q0 -88 144 -158q49 -40 141 -92q104 -35 219 -35q6 0 59 6l56 6q43 0 155 82 q100 72 142 125q57 72 90 154q39 102 39 229v16q-41 16 -70 17q-55 0 -123 -19q-18 -12 -47 -26q-51 -4 -111 -15q-59 -20 -178 -57l-280 -74l-82 -41q-154 -57 -154 -118z" />
<glyph unicode="h" horiz-adv-x="1427" d="M63 162q0 100 97 420q0 2 30 65q14 84 35 162q53 205 244 844v10q0 23 8 55q23 43 90 43q31 0 39 -16q29 -82 29 -98q0 -10 -90 -328q-96 -334 -105 -358q-39 -113 -108 -383q-53 -211 -53 -246v-25q10 -10 38 -10q14 0 62 20l72 29q68 23 319 88q272 70 299 70h25 q199 0 198 -225q0 -25 -10 -111v-2q0 -14 16 -64l19 -51q0 -16 -35 -76q-4 0 -59 -16l47 -16l-23 -19q-104 18 -145 139q4 102 4 226q-2 4 -31 28q-121 -16 -276 -51q-82 -20 -393 -151q-206 -86 -252 -86q-43 0 -70 57q-21 41 -21 76z" />
<glyph unicode="i" horiz-adv-x="456" d="M131 178q0 41 8 123q16 197 45 340q28 37 68 37q43 0 65 -68q4 -12 13 -481v-2q0 -14 -23 -109l-24 -6h-4q-20 0 -89 25l1 2l2 4q0 20 -23 55q-37 57 -39 68v12zM223 1057q0 55 39 121l88 12q31 -63 31 -125q0 -23 -59 -92q-99 27 -99 84z" />
<glyph unicode="j" horiz-adv-x="684" d="M-160 -770l13 94l127 -88q100 -66 153 -65q45 0 64 49q14 51 22 92q6 28 43 233q4 27 51 156q4 12 4 35v12q0 27 7 47l-2 -2v2q0 25 14 103l31 280v17q0 90 26 282q6 25 33 53q29 31 43 31l68 -10q39 -37 38 -115q0 -14 -10 -51l-14 -53q8 -47 8 -105v-10 q-2 -201 -55 -450q0 -31 -45 -254q0 -12 -4 -107q-51 -197 -97 -338l-10 -10l-25.5 -25.5l-31.5 -31.5q-58 -55 -74 -56h2q0 6 -59 31q-45 8 -84 20q-113 49 -150 95q-27 53 -86 139zM342 969q0 133 98 133q14 0 60 -17v-32q0 -143 -86 -144q-16 0 -45 23q-27 21 -27 37z " />
<glyph unicode="k" horiz-adv-x="1347" d="M63 117q23 -23 56 -60q27 -33 51 -32q35 0 43 38q16 47 53 62l72 254q51 -51 194 -107l144 -51l180 -57q109 -39 152 -49q66 -16 139 -56q65 -34 74 -36q12 0 55 20l47 23v51q0 39 -166 139q-145 88 -170 94l-272 72q-63 4 -123 20q47 41 264 107q229 72 279 96 q43 25 43 82v76q-90 39 -91 41q-12 0 -157 -60q-180 -74 -207 -79q-59 -16 -170 -56q-51 -18 -51 -22q0 -2 2 -2q-2 0 -14.5 -6.5t-14.5 -6.5q-33 0 -90 -34l141 524q0 109 97 360q12 33 12 103q0 63 -66 63q-52 0 -80 -49q-8 -25 -18 -47.5t-16 -40.5l-41 -82q4 -20 4 -41 l-41 -80l-101 -436q-35 -78 -88 -244q0 -33 -26 -112q-31 -104 -33 -115q-11 -112 -66 -264z" />
<glyph unicode="l" horiz-adv-x="581" d="M168 233v242l143 924q18 65 19 80v2q0 4 -1 10t-3 19.5t-4 25.5l-7 49l60 119l26 14q31 0 91 -53q55 -52 55 -80v-194q-35 -117 -72 -367q-6 -43 -61 -246q4 -29 4 -63q-20 -82 -41 -226q-2 -37 -2 -102q0 -137 12 -178q-2 -4 -10 -33q23 -27 22 -59q0 -39 -26 -80 q-25 -37 -62 -37q-14 0 -59 29q-43 28 -55 49q-3 9 -13 129q-16 22 -16 26z" />
<glyph unicode="m" horiz-adv-x="2093" d="M82 213q0 74 33 219q43 197 100 197q59 0 86 -54l45 -83l225 159q209 147 306 148q68 0 149 -97q70 -82 72 -102q20 -111 20 -223v-33q4 -4 19 -4q39 0 104 59l301 187q129 59 254 59h31q18 -37 53 -51q41 -49 94 -154q8 -57 8 -106q0 -35 -8 -146q-2 -10 -2 -34 q0 -49 8 -101q14 -92 15 -131q-4 0 -41 -6q-25 -4 -41 -4q-41 0 -90 57q0 2 1 3l1 3q0 16 -8 35q-51 90 -58 379q-8 12 -20 23q-125 -6 -322 -160l-309 -240q-27 -20 -84 -20q-127 0 -135 94l-1 4q-1 4 -1 8q0 29 6 121q8 100 8 195q0 80 -10 145q-12 23 -37 23 q-45 0 -174 -105q-37 -29 -150 -125l-143 -137q-133 -127 -190 -127q-35 0 -78 59q-37 54 -37 66z" />
<glyph unicode="n" horiz-adv-x="1107" d="M55 399q0 29 43 115q0 23 8 57q6 25 54 111q3 0 30 6q18 4 31 4q2 -10 45 -47q39 -33 56 -33q3 0 184 80l97 44.5l66.5 29.5t20.5 8q104 0 221 -149q37 -51 76 -119q55 -137 55 -361q0 -145 -67 -145q-10 0 -47 18q-43 23 -64 25q-55 84 -55 178q0 90 -68 305 q-12 14 -49 15q-33 0 -86 -29q-2 -2 -9 -6t-19 -10l-58 -29q-31 -20 -147 -158q-127 -147 -156 -147q-74 0 -121 90q-41 73 -41 147z" />
<glyph unicode="o" horiz-adv-x="1236" d="M41 362q0 16 22 95q22 74 37 98q18 35 95 70l98 45q92 53 244 116l75 7q14 6 39 18q8 0 66 6t61 6q299 0 385 -254q43 -123 43 -137q0 -119 -59 -194q-63 -76 -232 -160q-121 -61 -272 -96q-27 -6 -86 -21q-125 0 -283 84q-176 92 -200 215l-17 51q-16 41 -16 51z M254 344q0 -59 106 -117q98 -51 156 -51q102 0 283 90q203 102 202 205q0 150 -186 150q-133 0 -315 -60q-14 -12 -37 -29q-47 -4 -76 -20q-133 -131 -133 -168z" />
<glyph unicode="p" horiz-adv-x="1427" d="M80 317l24 33q-4 16 -4 31v18q57 117 260 226q205 106 367 110q4 4 18 10q34 12 117 13q188 0 334 -84q35 -18 131 -142q70 -84 70 -198q0 -109 -160 -238q-138 -114 -264 -147q-35 -31 -58 -31l-8 4q-8 4 -14 4q-8 0 -129 -26q-37 -8 -68.5 -15.5t-45.5 -10.5l-13 -3 l-4 -1q-4 -1 -13.5 -2t-17.5 -1t-16 -1t-13 -2l-4 -1q-39 0 -100 55l-3 -2q-3 -2 -6 -5t-5 -7q0 -23 -45 -330q-4 -25 -21 -225q-12 -176 -51 -238q-2 0 -3 1l-3 1q-4 0 -25 -4q-16 -4 -26 -4q-57 0 -117 84v193q0 4 14 24q0 8 -1 27.5t-1 29.5q0 111 8 242q12 25 31 90 q10 131 74 484q61 74 90 73q47 0 84 -47q37 -49 37 -100q0 -74 -37 -217q16 -12 22 -13q45 0 316 117q115 49 243 119q72 51 144 133q12 16 12 45q0 12 -37 60q-35 43 -61 63q-70 49 -182 49q-168 0 -336 -53q-190 -58 -222 -74q-106 -49 -106 -129q0 -4 4 -12 q-18 -33 -35 -80q-4 -4 -57 -31q-88 63 -88 135z" />
<glyph unicode="q" horiz-adv-x="1411" d="M63 418q0 52 87 160q86 106 131 112q242 74 540 148q55 8 285 8q10 0 164 -60q20 -8 61 -55q37 -47 37 -69q0 -72 -80 -72q-2 0 -10 4t-20.5 8t-33 11.5t-42.5 13.5q-86 27 -226 26q-51 0 -159 -28q-51 -12 -127 -33q-346 -61 -346 -215q0 -29 36 -53q41 -25 84 -25 q98 0 344 96l244 99q23 0 131 -115q4 -6 4 -35q0 -12 -24 -78q-35 -88 -41 -108q-51 -195 -78 -344l-100 -611v-10q0 -25 18 -53q-2 -4 -9 -20.5l-15.5 -35l-16.5 -36.5q-37 -80 -84 -80q-61 0 -86 35q-37 52 -37 116l11 25q2 6 5 11t4 8l1 3q14 260 14 465l76 510q4 0 4 4 q-2 2 -23 2q-212 -49 -221 -49h-100q-68 0 -180 47q-137 55 -170 119q-52 88 -52 154z" />
<glyph unicode="r" horiz-adv-x="1304" d="M59 131q0 6 2 22.5t5.5 52.5t7.5 66q10 98 20 211q55 125 101 125l26 -10q29 -12 33 -12q2 0 78 59l174 88q92 43 217 43q31 0 530 -84q2 -2 19 -16l102 -12q0 -66 12 -76l-9 -6q-9 -6 -33.5 -19.5l-47.5 -25.5l-18 16q-18 -16 -37 -16q-43 0 -229 18l-230 23 q-299 0 -420 -195q-31 -49 -55 -168l-4 -4q-4 -4 -9 -8t-9 -10q0 -70 -25 -181q-39 -16 -92 -16q-109 0 -109 135z" />
<glyph unicode="s" horiz-adv-x="1069" d="M41 90q0 8 31 47l307 58q203 39 268 77q0 8 -2 13q-37 27 -217 100q-201 84 -219 96q-41 14 -115 64q-20 20 -20 88q0 -6 -2 -6t-9 16q-2 4 -2 12q0 43 97 80q102 41 344 84q221 39 375 39q39 0 51 -12q59 -61 59 -96q0 -55 -39 -74q-45 -12 -301 -39q-49 -20 -57 -21 l-2 1q-2 1 -6 2.5t-8.5 1.5t-8.5 1t-7 2l-3 1q-55 0 -129 -37q16 -25 45 -43q47 -8 139 -35q98 -37 111 -41l14 -4l96 -39q49 -23 91 -72q14 -16 26 -73q0 -2 12.5 -22.5t12.5 -25.5q0 -16 -39 -47q-37 -29 -76 -41l-262 -82q-215 -66 -328 -65q-16 0 -43 6q-35 8 -41 8 q-8 0 -39 -8q-27 -6 -33 -6h-1q-15 0 -43 37q-27 35 -27 55z" />
<glyph unicode="t" horiz-adv-x="1107" d="M-37 723q0 33 28.5 61.5t59.5 28.5q6 0 58 -6q35 -4 57 -4l6 1q6 1 17.5 2t23.5 1t23.5 1t17.5 2l6 1l25 -10q18 -8 24 -8q2 0 8.5 1t20.5 2t31 1q14 0 27.5 1t19.5 2l6 1q51 0 63 51q6 16 33 131l70 195q2 31 16 104q31 45 51 90q117 246 199 246q33 0 98 -115 q0 -22 -37 -92q-25 -29 -53 -74q-23 -78 -110 -309q-27 -68 -41 -207q70 -20 88 -20l53 8q59 8 98 8q74 0 125 -12l51 -12q123 0 123 -56q0 -37 -28 -53q-29 -18 -111 -33q-76 -16 -92 -28q-86 -12 -90 -13q-76 0 -246 -22q-53 -6 -61 -33q-22 -58 -43 -178 q-4 -127 -37 -332q-35 -47 -35 -49q-111 6 -135 35q-12 14 -13 75q0 68 48 463q-27 23 -50 23h-6q-37 -4 -45 -4q-12 0 -16 2q-66 4 -201 8q-125 23 -125 125z" />
<glyph unicode="u" horiz-adv-x="1378" d="M72 530q0 133 84 238h53q61 -43 61 -141q0 -27 -2 -68q0 -18 -1 -34.5t-2 -24.5t-1 -11q0 -172 187 -223q66 -18 65 -20h-2q12 0 35 2q10 0 18 1t12.5 2t6.5 1q100 0 270 113q106 72 205 198q102 131 115 211q2 14 36 45q33 31 48 31q53 0 53 -125q0 -72 -15 -102 l-63 -164q-10 -4 -23 -19q-6 -33 -51 -84l-69 -77l-9 -25q-104 -104 -278 -191q-166 -51 -246 -51q-43 0 -139 29q-348 104 -348 489z" />
<glyph unicode="v" horiz-adv-x="1218" d="M49 598q45 123 90 123q8 0 146 -203q133 -201 149 -201q12 0 94 48q88 51 105 67q37 18 176 105q29 29 84 67q102 43 246 84q43 -31 43 -65q0 -25 -25 -54l-19.5 -15l-48 -36l-94.5 -72q0 -6 -4 -30q-522 -389 -555 -389q-12 0 -74 39q-61 41 -67 53q-145 248 -211 420 q-2 4 -9 11q-5 7 -9 11q-17 23 -17 37z" />
<glyph unicode="w" horiz-adv-x="1849" d="M35 700q0 12 49 88q31 12 39 13q28 0 67 -43q41 -43 48 -80q0 -31 4 -55q35 -96 51 -164q4 -57 47 -160h25q55 0 256 195l237 233q16 16 60 16q68 0 124 -120q41 -84 52 -101q6 -14 23.5 -42.5t43.5 -76.5q61 -104 96 -104q29 0 152 129l154 160q35 39 368 305 q33 4 90 20q33 -59 33 -96q0 -41 -123 -121q-12 -31 -33 -57q-41 -33 -77 -70q-6 -16 -52 -82q-41 -33 -71 -63l-60 -90q-16 -23 -149 -160q-154 -156 -197 -156q-94 0 -325 299l-82 105q-10 0 -105 -88q-113 -104 -151 -135q-258 -197 -299 -197q-61 0 -99 43 q-66 72 -137 381q-59 254 -59 274z" />
<glyph unicode="x" horiz-adv-x="1267" d="M51 223v4q0 74 135 228q125 143 136 143l-113 127q-113 125 -113 147q0 18 35 66q33 45 55 45q45 0 199 -139l158 -139q14 6 90 45q100 51 112 55q246 78 357 78q135 0 135 -105q0 -51 -29 -63q-47 -20 -256 -58q-25 -2 -125 -53q-113 -57 -112 -78q0 -6 47 -57l59 -61 l129 -160q74 -92 74 -162q0 -3 -6 -37t-6 -37q0 -12 -21 -12q-76 0 -117 37q-49 49 -204 223q-139 152 -160 152q-102 0 -289 -199q-4 -2 -14 -49q-47 -27 -68 -27h-45q-40 0 -43 86z" />
<glyph unicode="y" horiz-adv-x="1230" d="M43 469q0 104 12 135q39 76 66 76q86 0 110 -154q6 -34 19 -153q55 -96 151 -97q27 6 80 21q98 25 107 27q117 23 223 90l186 118q4 6 47 58h101q49 -71 49 -135q0 -14 -45 -111q-35 -74 -74 -135q-22 -15 -49 -43q-10 -27 -84 -174l-4 -12v-5l-20 -32q-18 -12 -41 -41 q-8 -18 -17 -80q-27 0 -39 -35l-49 -127q-16 -45 -70 -125q4 -25 5 -47q-25 -33 -41 -66q0 -4 -41 -172l-50 -122l-34 -129q-10 -35 -66 -35q-53 0 -90 39q-39 43 -39 94q0 35 53 178q2 4 6.5 18.5t11.5 40t15 50.5q16 16 33 41q16 74 266 675l-12 15q-147 -63 -238 -64 q-3 0 -49 12.5t-49 12.5q-8 0 -16 -4l-17 -4q-43 0 -125 47q-65 40 -86 61q-49 55 -63 129q4 8 4 12q0 2 -1 5.5t-3 5.5q-33 39 -33 141z" />
<glyph unicode="z" horiz-adv-x="1388" d="M113 106q6 49 32 109q8 10 109 100q70 39 262 160q43 27 113 115q-12 29 -37 28l-164 -16l-164 -14q-115 0 -114 86q0 84 79 96q276 43 576 43q10 0 45 -20l41 -25q25 -39 24 -63q0 -195 -440 -476q27 -27 111 -26l495 41h-6q0 2 84 6h39q43 0 64 -6q25 -14 41 -31 q4 -12 4 -35q0 -61 -82 -82q-49 -4 -148 -20q-125 -18 -317 -39q-362 -37 -469 -37q-43 0 -96 20q-4 25 -82 86z" />
<glyph unicode="{" horiz-adv-x="1021" d="M37 827v7l6 94q2 25 2 41l25 16q6 -6 24 -6q51 0 244 121q55 35 55 94q0 23 -139 215q-4 16 -4 66q0 131 43 170q33 29 242 77q18 10 57 27q57 4 280 4q45 0 82 -41q35 -37 35 -88q0 -27 -6 -45q-4 -2 -16.5 -13.5t-22.5 -19.5q-25 -18 -45 -18h2q0 2 -67 20q-12 2 -78 2 q-98 0 -264 -49q-35 -12 -35 -43q139 -199 139 -225v2l-16 -76q-6 -82 -84 -184q-61 -82 -74 -82q-2 2 -2 4q6 -9 43 -43q41 -47 41 -131q0 -18 -94 -219q-92 -203 -93 -228q0 -16 13 -34q18 -92 63 -140l76 -86q51 -25 119 -63q14 -14 53 -31h281q10 -16 10 -57t-2 -45 q-27 -35 -111 -72q-43 -20 -119 -20q-100 0 -268 77q-164 76 -205 146q-49 84 -63 127l-23 33q-29 158 -28 200q0 109 59 203q82 133 98 201q-23 14 -155 39q-78 16 -78 73z" />
<glyph unicode="|" horiz-adv-x="362" d="M35 -2l22 395q27 520 27 641q0 442 6 639q0 16 31 51q28 28 49 31h2q25 0 57 -39q39 -45 39 -65v-2v-13q0 -31 -6 -133q-8 -166 -8 -207l6 -606q-10 -45 -18 -131q-12 -197 -13 -328q0 -104 9 -159q2 -20 2 -56q0 -43 -9 -73q-23 -61 -22 -97v-10q-8 -8 -31 -22 q-41 16 -90 80q-51 65 -53 104z" />
<glyph unicode="}" horiz-adv-x="815" d="M-10 -342q0 41 30 53q111 43 154 62q80 35 176 92q96 53 115 65q49 49 49 113q0 4 -14.5 30.5t-14.5 35t2 14.5l-81 194q-70 168 -70 203l20 135q6 14 13.5 26.5t10.5 18.5l3 7q0 8 -31 45q-10 12 -33 36q-20 43 -20 101q0 77 61 160q39 51 140 155q10 20 26 45 q86 90 109 117q70 82 86 143q-27 35 -180 35q-12 0 -86 -8t-88 -8q-68 0 -82 45q-8 82 -15 123q25 20 140 43q92 16 116 16q80 0 254 -45q25 -6 68 -43t45 -53q14 -70 14 -121q0 -119 -149 -276q-244 -266 -244 -312q0 -41 66 -53q14 0 82 -12q2 0 34.5 -19.5l55.5 -34.5 q14 -20 14 -38q0 -92 -35 -121q-4 -2 -106 -31q-74 -23 -74 -76q0 -33 51 -127q4 -8 18.5 -34.5l38.5 -73.5q68 -141 68 -295q0 -100 -45 -168t-164 -137l-223 -95q-4 -4 -11.5 -10t-15.5 -16q-156 -27 -155 -33h2q-125 0 -125 127z" />
<glyph unicode="~" horiz-adv-x="1136" d="M37 1380q0 59 2 64q20 35 166 143q160 117 215 117q51 0 155 -74l107 -71q43 0 379 178q49 -12 49 -66q0 -27 -63 -100q-10 -31 -25 -51q-227 -178 -375 -179q-16 0 -115 68q-100 70 -106 70q-41 0 -150 -82q-31 -23 -77 -92q-18 -27 -70 -27q-23 0 -90 41v10q6 23 6 33 q0 12 -8 18z" />
<glyph unicode="&#xa1;" horiz-adv-x="540" d="M43 -410q6 0 27 27q18 332 190 991q2 14 31 39q27 23 39 23q18 -4 63 -21q43 -61 43 -112q0 -4 -41 -181q-37 -168 -37 -198v-2q-39 -18 -39 -146q-4 -8 -14 -16q-2 -53 -37 -176q-31 -111 -30 -168q0 -29 10 -56q-23 -41 -58 -92q-41 -8 -40 -12h2q-14 0 -50 39z M313 1055l15 30q10 25 10 43q0 4 -1 9.5t-1 7.5h84q8 0 72 -27q8 -51 8 -63v2l-13 -76l-26 -25q-14 -14 -29 -14q-37 0 -80 39q-39 39 -39 74z" />
<glyph unicode="&#xa2;" horiz-adv-x="878" d="M55 618q0 33 60 115q12 14 45 33l26 22q72 29 213 68h7q29 0 88 16q27 27 98 164q6 12 6 25v8q82 92 121 92q8 0 26 -8q0 -4 -1 -9t-1 -7q0 -20 5 -25q25 -41 28 -49q-10 -35 -47 -186q27 -6 70 -39q27 -47 26 -78q-2 -2 -34 -49q-20 -29 -99 -29q-2 0 -6 2q-4 4 -6 4 q-59 0 -78 -33q-6 -10 -16 -86q23 -16 69 -16q2 0 58 6q16 2 36 4q18 2 19 2q41 0 41 -57q0 -35 -4 -43l-39 -53q-70 -45 -270 -62q-35 -35 -52 -112q-18 -88 -36 -121q12 -23 12 -35q0 -16 -37 -45q-35 -27 -53 -27q-41 0 -66 58q-16 39 -16 69l22 101l23 96q0 39 -100 84 q-47 23 -92.5 88t-45.5 112zM293 604q14 -14 78 -33q23 49 24 52q0 14 -10 24q-67 -21 -92 -43z" />
<glyph unicode="&#xa3;" horiz-adv-x="1376" d="M49 272q0 92 33 129q158 164 317 164q14 0 35 -2l31 -4q25 0 49 53q23 49 23 64q0 29 -35 33q-10 2 -38 6t-71 8q-72 16 -94 47q-14 20 -14 80q0 72 20 92q16 0 51 8q47 10 49.5 10.5t9.5 -1t22.5 -2.5t31.5 -1l61 -4q80 0 95 2q8 14 71 205q12 37 113 250q27 55 55 82 q49 43 168 96q25 12 125 12q55 0 180 -53q2 0 78 -35q57 -25 58 -86q0 -37 -31 -77.5t-72 -47.5q-154 104 -231 105q-37 0 -88 -29q-49 -27 -64 -57q-31 -66 -76 -209q-39 -127 -39 -141q0 -47 58 -58q14 0 88 -8q47 -14 112 -43q31 -12 31 -43q0 -2 -6 -35q-4 -23 -4 -37 q-10 0 -96 -28l-80 -29l-76 2l-78 4h-4q-43 0 -72 -80q-6 -16 -26 -92q-33 -41 -33 -53t37 -43q45 -37 53 -49q100 -141 297 -141q33 0 133 36l101 37q51 0 51 -61q0 -72 -41 -117q-23 -23 -133 -86q-61 -35 -158 -35q-23 0 -115 27q-109 31 -155 57q-45 39 -113 88 q-18 23 -55 54q-37 -27 -158 -150q-76 -76 -170 -76q-211 0 -211 262zM248 254l12 -8q16 4 32.5 22.5t16.5 34.5q0 4 -2 6l-28.5 -15t-30.5 -18v-22z" />
<glyph unicode="&#xa4;" horiz-adv-x="1775" d="M39 494q0 12 27 86q74 0 94 -2l30 -5q9 3 80 19q10 8 29 57q-78 6 -90 13q-59 25 -59 129q0 88 88 88q8 0 63 -8.5t68 -8.5q51 0 141 72q131 104 145 113q209 125 406 172q57 29 147 61q80 18 254 18q47 0 76 -59q23 -41 23 -65q0 -37 -35 -68q-33 -33 -72 -33l-3 1 q-3 1 -9 2t-12 1q-10 1 -22 4q-5 1 -5 0q-223 0 -524 -182q12 -20 41 -20q70 12 243 30q304 18 412 19q14 0 131 -37q43 -12 74 -47q6 -6 6 -33q0 -31 -37 -53q-35 -23 -80 -23l-6 1q-6 1 -17.5 2t-25.5 1q-31 2 -51 2q-143 0 -490 -34q-16 -8 -47 -17q-184 -4 -420 -22 q-20 -6 -53 -58q18 -6 84 -6l723 58q8 0 21.5 -1.5t38 -2.5t44.5 -1l105 -2q6 0 33 7q8 2 15 4t11 3l4 1h-2q0 -3 123 -19q27 -4 74 -41q-4 -27 -55 -98q-71 -18 -148 -25q-6 0 -58 -3l-136 -8l-179 -11q-174 -10 -262 -23q-84 -18 -84 -20h4q-14 2 -36.5 4t-38.5 2 q-33 0 -156 -18q-111 -18 -143 -29h-4q-4 0 -5 -12q0 -55 185 -99q20 -14 28 -18q172 -41 353 -41q84 0 205 6l204 10h11q65 0 172 -37q29 -33 28 -69q0 -76 -69 -84q-541 -59 -668 -60q-287 0 -481 132q-18 18 -49 41q-8 2 -31 9t-35 11q-29 25 -80 98q2 12 2 33 q0 49 -35 61q-74 25 -122 25q-6 0 -11 -2l-8 -4q-61 0 -92 113z" />
<glyph unicode="&#x20ac;" horiz-adv-x="1775" d="M39 494q0 12 27 86q74 0 94 -2l30 -5q9 3 80 19q10 8 29 57q-78 6 -90 13q-59 25 -59 129q0 88 88 88q8 0 63 -8.5t68 -8.5q51 0 141 72q131 104 145 113q209 125 406 172q57 29 147 61q80 18 254 18q47 0 76 -59q23 -41 23 -65q0 -37 -35 -68q-33 -33 -72 -33l-3 1 q-3 1 -9 2t-12 1q-10 1 -22 4q-5 1 -5 0q-223 0 -524 -182q12 -20 41 -20q70 12 243 30q304 18 412 19q14 0 131 -37q43 -12 74 -47q6 -6 6 -33q0 -31 -37 -53q-35 -23 -80 -23l-6 1q-6 1 -17.5 2t-25.5 1q-31 2 -51 2q-143 0 -490 -34q-16 -8 -47 -17q-184 -4 -420 -22 q-20 -6 -53 -58q18 -6 84 -6l723 58q8 0 21.5 -1.5t38 -2.5t44.5 -1l105 -2q6 0 33 7q8 2 15 4t11 3l4 1h-2q0 -3 123 -19q27 -4 74 -41q-4 -27 -55 -98q-71 -18 -148 -25q-6 0 -58 -3l-136 -8l-179 -11q-174 -10 -262 -23q-84 -18 -84 -20h4q-14 2 -36.5 4t-38.5 2 q-33 0 -156 -18q-111 -18 -143 -29h-4q-4 0 -5 -12q0 -55 185 -99q20 -14 28 -18q172 -41 353 -41q84 0 205 6l204 10h11q65 0 172 -37q29 -33 28 -69q0 -76 -69 -84q-541 -59 -668 -60q-287 0 -481 132q-18 18 -49 41q-8 2 -31 9t-35 11q-29 25 -80 98q2 12 2 33 q0 49 -35 61q-74 25 -122 25q-6 0 -11 -2l-8 -4q-61 0 -92 113z" />
<glyph unicode="&#xa5;" horiz-adv-x="1249" d="M53 549q0 4 15 33l16 30l72 6q71 6 80 7h55h74h90q96 0 96 90q0 76 -35 110l-338 373q-39 45 -39 94q0 74 39 119q45 -6 113 -37q45 -27 88 -67q170 -233 217 -234l184 121q0 2 6.5 12.5t10.5 18.5q242 199 407 313q16 10 53 10q94 0 95 -104q0 -66 -29 -84 q-240 -162 -395 -324q-20 -8 -45 -20l-78 -62q-45 -37 -57 -71q-20 -53 -21 -189q0 -49 66 -49h6q6 0 23.5 1t50 2t65.5 1l139 6h15q92 0 92 -55q0 -66 -78 -96q-217 -82 -285 -82l-3 1q-3 1 -7 2t-10 1q-12 2 -23 2q-37 0 -59 -20q-1 -3 -2 -7q0 -20 33 -20h-2l157 12 l156 10q78 0 78 -61q-4 -10 -45 -80q-33 -16 -138 -57q-84 -10 -288 -55q-18 -8 -60 -105q-47 -20 -71 -45h-62q-33 104 -33 117q-4 10 -20 28q-31 -16 -121 -16q-92 0 -178 29q-37 94 -41 94q18 72 18 88q8 4 21 12l190 4q80 0 174 25q0 10 -34 20q-70 8 -330 13 q-68 52 -68 135z" />
<glyph unicode="&#xa7;" horiz-adv-x="993" d="M57 1210q0 98 13 123q53 109 217 174q143 61 321 62q6 0 17.5 -1t17.5 -1q61 23 64 22l49 -10q133 -150 133 -176q0 -80 -68 -80q-8 0 -96 20q-27 6 -50.5 12.5t-33.5 8.5l-10 2q-158 0 -303 -53l-47 -45q63 -45 286 -72q47 -6 135 -47q84 -55 103 -70q2 -2 22 -55 q25 -25 56 -74q20 -41 20 -104q0 -74 -20 -113q-14 -14 -41 -39q-41 -37 -41 -39q6 -4 57 -59q106 -119 107 -260q0 -117 -125 -217q-121 -96 -271 -96q-131 0 -250 47q-160 61 -225 176q2 10 2 45l-20 26h-2q0 59 67 60q29 0 127 -43l43 -21l49 -22q88 -27 111 -29 q10 -2 25 -8q25 -10 26 -10q72 0 133 26q86 37 86 92q0 41 -65 103q-80 76 -250 123q-55 6 -86 12q-166 72 -205 105q-61 49 -61 145q0 76 10 100l31 64q18 37 18 43l-39 78zM281 905q0 -43 84 -71q70 -14 106 -23l215 -72q12 51 12 60q0 80 -82 135q-83 55 -196 55 q-80 0 -94 -18q-45 -52 -45 -66z" />
<glyph unicode="&#xa8;" horiz-adv-x="778" d="M82 1516q0 66 51 108q18 -6 41 -15.5l47 -19.5q78 -31 78 -71.5t-35 -71.5q-31 -33 -74 -33q-39 0 -75 33q-33 31 -33 70zM530 1516q0 57 13 83h65q100 0 101 -124q0 -76 -72 -76q-107 0 -107 117z" />
<glyph unicode="&#xa9;" horiz-adv-x="1236" d="M45 608q0 80 33 217q2 2 23.5 38l37.5 61q6 4 10.5 8t7.5 6t10 8t15 15q66 84 197 137q111 33 219 69q37 10 137 11q272 0 398 -267q43 -89 43 -166q-20 -109 -21 -137q-12 -246 -295 -362q-45 -29 -125 -58q-90 -20 -151 -20q-123 0 -254 59q-133 61 -170 131 q-33 37 -82 107q-33 77 -33 143zM240 608q0 -102 88 -166q90 -66 221 -65q55 0 96 16q55 23 113 39q4 10 24 23q92 18 148 129q43 88 43 182q0 68 -41 166q-25 55 -211 55q-139 0 -279 -117q168 23 238 23q12 0 47 -23l47 -36q8 -27 21 -78q0 -20 -47 -43q-20 -8 -43 -8 l-5 1q-4 1 -13 2t-17 1l-33 2q-31 0 -70 -19q-55 -22 -55 -55q0 -27 59 -27l11 2q10 2 33.5 5.5l50.5 7.5q89 12 92 12q16 0 37 -25q23 -27 22 -39q0 -152 -239 -151q-111 0 -185 49t-74 125q0 207 115 254q-6 4 -18 8q-176 -98 -176 -250z" />
<glyph unicode="&#xaa;" horiz-adv-x="665" d="M35 1509q0 29 31 90q4 2 11 7.5l14 11.5t13 12q2 4 4.5 8t2.5 9q27 25 149 71q4 2 39 2q86 0 166 -53q9 -12 24 -37q-2 -8 -14 -49l78 -72q78 -72 78 -84q0 -16 -33 -36q-31 -18 -59 -19h-60q-74 61 -108 62q-31 -6 -88 -21q-82 -20 -88 -20q-43 0 -115 32q-45 18 -45 86 zM209 1552q0 -29 33 -28q16 0 39 6q53 16 53 37q0 29 -37 28q-15 0 -37 -6q-51 -12 -51 -37z" />
<glyph unicode="&#xab;" horiz-adv-x="1509" d="M43 365q0 76 115 143q51 33 116 98l121 121l119 80q83 55 123 55q45 0 80 -33q39 -33 39 -69l-72 -121q-68 -18 -172 -94l-119 -117q-4 -8 -4 -22q0 -29 17 -33q68 -12 210 -107q147 -98 148 -157q0 -35 -49 -95q-27 0 -70 13q-279 119 -543 217q-16 6 -39 49 q-20 39 -20 72zM723 358q0 70 115 142q41 25 114 98l119 123l117 78q86 55 129 55t78 -33q37 -34 37 -67l-70 -123q-78 -20 -174 -92l-117 -117q-4 -12 -4 -25q0 -33 18 -35q76 -12 211 -104q145 -100 146 -160q0 -35 -51 -92q-25 0 -68 12q-279 117 -543 215 q-20 8 -38.5 49t-18.5 76z" />
<glyph unicode="&#xac;" horiz-adv-x="1792" d="M82 481q0 33 49 56q35 18 59 18q0 -2 74 -14q29 -2 383 -2q3 0 80 12q76 12 82 12l-6 -2q2 -2 51 -12q4 0 15.5 -1t17.5 -1q25 0 82 4l129 4q12 0 63 -8l56 -8q10 0 51 8t49 8q6 0 24.5 -8t26.5 -8t41 8t39 8q35 0 115 -10q10 -2 41 -17q8 -4 22 -4q12 0 23 6 q80 -113 80 -139q0 -4 -23 -84q-27 -98 -31 -121q-2 -2 -8 -9t-12 -13q0 -77 -99 -289q-37 -33 -71 -68q-6 -8 -15 -49l-17 -7l-23.5 -10l-36.5 -15q-10 4 -35 61q-25 59 -25 66q0 47 150 464q0 23 -33 27q-88 8 -180 8q-12 0 -68.5 -1t-190.5 -4t-263 -5l-521 -12h-2 q-47 0 -96 51q-47 49 -47 100z" />
<glyph unicode="&#xad;" horiz-adv-x="704" d="M53 442q0 94 97 95q162 0 174 -5q51 -8 157 -8l29 6q35 0 88 -16q33 -41 33 -74q0 -25 -39 -43l-33 -32q-20 -16 -61 -17q-4 0 -11.5 1t-11.5 1q-18 -4 -94 -16h-135l-135 16q-8 2 -48 29q-10 45 -10 63z" />
<glyph unicode="&#xae;" horiz-adv-x="1236" d="M74 623q0 49 35 245l22 23q4 16 19 47q51 63 217 145q6 2 16 8.5t27 12.5l4 -1q4 -1 8 -1t7 -1l3 -1l-4 2q4 2 41 12q197 53 236 53q2 0 18 -10h18q143 0 252 -141q8 -12 68 -78q8 -16 26 -49q0 -4 13 -45q18 -16 67 -168v-49q0 -131 -65 -205q-68 -76 -260 -176 q-61 -29 -156 -29q-16 -2 -30.5 -3t-20.5 -2l-6 -1q-41 8 -60 8q-2 0 -9 -1t-11 -1q-102 0 -266 82q-57 29 -115 98q-53 66 -64 125q-12 33 -30 101zM233 651q0 -41 9 -106q8 -20 20 -58q164 -111 248 -110l29 6l18 -6q12 -4 21 -4q10 0 45 8l45 12q141 12 327 180 q16 23 17 86q0 82 -37 146q-25 29 -37 47q-55 156 -227 156q-84 0 -236 -58q-6 0 -12 2l-12 4q-35 0 -103 -55q-70 -57 -86 -90q-29 -101 -29 -160zM399 688q6 6 13 14v23q0 43 8 92l80 53q90 63 168 64q84 0 137 -78q33 -47 33 -76l-38 -59.5l-27 -41.5l-7 -11 q0 -20 88 -64v-8q0 -20 8 -51q-29 -41 -84 -41q-82 0 -180 53l-5 5t-8 9.5l-10 12.5q-12 -63 -20 -97q-14 -18 -45 -43q-41 29 -80 78q4 12 4 23q-27 70 -26 114q0 2 1 7.5t1 7.5l-7 9q-3 4 -4 5zM557 709q0 -18 21 -19h8q51 51 51 78v4q-80 -26 -80 -63z" />
<glyph unicode="&#xaf;" horiz-adv-x="1040" d="M53 1608v30q0 6 1 16.5t1 14.5v6v-6q63 45 95 45q14 0 102 -16q98 -18 104 -19q4 0 35 7q20 2 35 2q12 0 145 -11q78 -8 199 -26q117 -18 131 -19l29 4l22 4q43 0 43 -34v2q-2 0 -12 -78q-51 -16 -68 -47q-14 0 -71 -8q-18 -2 -34.5 -5.5t-24.5 -4.5l-7 -1q-6 0 -53 -8 t-57 -8q-66 0 -340 20h4q-37 -2 -109 -4h-10q-160 1 -160 144z" />
<glyph unicode="&#xb0;" horiz-adv-x="649" d="M51 1466q0 158 117 238q16 4 117 20q10 10 20 17q66 8 78 8q35 0 96 -29q57 -27 72 -53q6 -10 19.5 -39l21.5 -45q10 -18 10 -59q0 -63 -10 -74q-129 -158 -223 -160q-4 -2 -12.5 -7t-14.5 -7q-23 -14 -29 -14q-117 0 -188 57q-74 57 -74 147zM217 1462q34 -18 68 -18 q51 0 65 6q45 20 74 59q10 12 10 35v12q-46 25 -74 25q-23 0 -69 -27q-31 -18 -41 -59q-20 -12 -31 -12h-2v-21z" />
<glyph unicode="&#xb1;" horiz-adv-x="862" d="M63 141q0 39 23 80q92 29 131 29h-8q10 -2 29 -2q14 -2 44.5 -3t47.5 -1q6 0 65.5 -1t110.5 -1l4 1q4 1 6 1q18 0 68 -27q57 -31 57 -63q0 -39 -94 -72q-178 -66 -285 -66h-102q-97 0 -97 125zM86 686q0 33 51 59q57 29 109 29l3 -1q3 -1 7 -2t10 -1q6 -1 15 -3 q6 -1 8 -1q10 0 77.5 108.5t84.5 108.5q33 0 75 -53q8 -125 54 -125q12 0 86 8q72 8 84 8q25 0 57 -28q31 -27 31 -52q0 -18 -17 -45q-18 -33 -28 -37q-104 -55 -195 -55l-4 1q-5 1 -6 3l-13 4q-59 0 -79 -30q-4 -14 -12.5 -50t-12.5 -55l-55 -115h-80q-31 53 -37 101 q0 16 -6 88q-28 22 -98 24q-109 2 -109 111z" />
<glyph unicode="&#xb2;" horiz-adv-x="1509" d="M45 1266q0 37 49 59q4 2 32 12.5t52 20.5q51 31 187 90l333 96q190 57 330 58q74 0 80 -3q206 -77 221 -196q-4 -4 -12 -29q16 -10 16 -43q0 -82 -53 -190q-55 -113 -123 -174q-6 -18 -35 -64q-74 -94 -221 -229q-22 -22 -436 -387q0 -10 -6 -35q-6 -2 -39 -29 q31 -25 80 -24q12 2 84 20q72 20 118 27q287 39 627 39l45 -6q41 -8 60 -9q20 -14 20 -20q0 -53 -86 -70l-111 -22q8 -4 31 -4q-281 -16 -391 -62q-25 -2 -182 -26q-205 -29 -365 -29q-15 0 -92 -6l-78 -6q-33 0 -65 20q0 16 -39 49l1 2q1 2 1 4q0 9 -6 31l-9 33q0 12 3 18 q272 197 391 299l217 193l92 100q18 8 51 31q102 94 252 297q94 174 94 254q0 39 -35 61q-39 27 -88 27q-104 0 -559 -133q-27 -8 -176 -78l-139 -62q-4 -4 -12 -4q-25 0 -68 39q-41 37 -41 60z" />
<glyph unicode="&#xb3;" horiz-adv-x="1482" d="M35 76q3 0 12 55q152 102 412 129q426 49 682 207q98 59 98 94q0 33 -82 82q-68 39 -100 47q-287 78 -346 78q-12 -6 -25 -14q-10 -2 -100 -2q-82 0 -174 16l-41 25q0 4 12 59q6 39 12 57q49 27 148 64q264 92 391 174q113 70 242 207q8 8 26 59q-27 31 -125 31 q-12 0 -143 -21l-141 -20q-20 0 -43 16l-9 -20l-225 -64l-168 -53q-115 -39 -121 -39q-41 0 -67 45q-33 59 -49 72l41 49q201 72 299 96q125 31 350 76q199 41 227 41q6 0 22.5 -8t20.5 -8q2 0 6 1t11.5 2t13.5 1q25 4 24 4q55 0 131 -29q20 -14 101 -61q4 -14 16 -43 q16 -45 17 -49q0 -31 -23 -89q-10 -4 -31 -24v-4q0 -41 -92 -121q-86 -74 -147 -98q-47 -43 -142 -109q-35 -14 -145 -72q12 -33 203 -63q109 -29 182 -59q231 -96 231 -277q0 -90 -229 -205q-106 -51 -127 -65q-104 -16 -467 -115q-100 -8 -258 -35q-33 -6 -135 -51 q-90 -39 -96 -39q-14 0 -47 28.5t-33 43.5v-2z" />
<glyph unicode="&#xb4;" horiz-adv-x="684" d="M37 1450q0 12 4 31q0 6 1 13t2 11l1 4l250 105q18 16 43 26q206 98 246 99q16 0 39 -15q25 -16 24 -26q0 -47 -211 -168q-70 -27 -76 -29q-200 -123 -245 -123q-78 0 -78 72z" />
<glyph unicode="&#xb5;" horiz-adv-x="2631" d="M43 551q0 45 51 53q160 27 234 27l3 -1q3 -1 9 -2t12 -1t12.5 -1t10.5 -2l4 -1q47 0 86 20v37q0 35 -4 43q-35 94 -35 233.5t20 276.5q6 41 58 160q31 43 55 102q94 102 178 139q33 6 121 31q98 39 209 39q158 0 291 -70q98 -49 168 -129q78 -96 78 -143v-68 q-23 -18 -41 -18q-10 0 -125 86q-156 115 -201 131l-205 16q-8 0 -24 -8l-25 -14q-360 -68 -360 -553q0 -287 73 -287q8 0 84 21l80 20q4 0 21 -6q10 -4 16 -4q39 0 383 63q121 2 139 7q100 16 144 67q18 121 53 272q53 219 225 355q55 41 234 108q133 49 170 49 q170 0 231 -83q14 -16 45 -107q29 -84 31 -84v4q0 -16 -15 -24q29 -10 29 -50q0 -176 -272 -354q-121 -76 -342 -147l-119 -39q-61 -28 -61 -92q0 -33 14 -74q15 -55 37 -55l45 8q8 2 17 3t14.5 2t10.5 2t7 1h2q2 0 49 -3t169 -12.5l249 -19.5q59 -47 59 -86q0 -16 -20 -31 q-18 -16 -45 -16q-10 0 -22.5 2t-20.5 2h2q0 -2 -68 -20q-147 0 -209 -4q-111 -12 -170 -52q0 -2 3 -13l10.5 -40t13.5 -57q20 -80 20 -92.5t-61 -67.5q-12 35 -59 35q-18 0 -31 -8q-10 10 -70 114q-49 80 -98 119q-45 -33 -88 -33l-66 -16q-25 -6 -45 -6q-82 0 -82 110 q0 31 9 64q12 51 34 72q20 6 121 10q70 2 90 28l-45 142h-22q-172 -45 -498 -119q-40 0 -110 -12q-172 -57 -173 -103l41 -61q33 -106 33 -158q0 -88 -71 -88q-16 0 -54 31q-33 27 -49 57q-25 55 -37 92l-39 58q0 29 -14 78q-86 28 -86 30q-35 0 -150 -10l-149 -14 q-6 0 -96 28q0 6 -17 60zM1790 909q0 -37 14 -45q147 35 338 137q264 141 264 271q0 51 -30 88q-33 37 -82 37q-20 -4 -60 -15q-61 -16 -65 -16q-90 -10 -225 -111q-47 -35 -100.5 -153.5t-53.5 -192.5z" />
<glyph unicode="&#xb6;" horiz-adv-x="1173" d="M74 934q0 125 61 192q66 72 250 156q16 10 133 45q115 35 119 35q12 0 27 -4q6 -2 12 -3t9 -2l3 -1l4 2q4 2 10.5 5t12.5 7q117 31 170 31q43 0 106 -8q10 -4 53 -33q0 -12 3 -23q10 -8 36 -39q4 -70 4 -178v-37q0 -117 -4 -219l-6 -108q-4 -88 -14 -539 q-2 -193 -16 -213q-35 -18 -70 -18q-55 0 -55 49q0 20 -1 66t-1 73q0 164 10 471l12 375v71q0 90 -8 130q-6 27 -49 26q-20 0 -33 -14v2l4 -45v-154v2q-2 0 -18 -69q0 -43 -4 -109l-60 -715q-29 -31 -72 -30q-47 0 -51 249l2 -36q2 29 2 303q0 23 2 61q0 16 1 32.5t2.5 25 t1.5 10.5l-13 10l-24 -16q-178 -20 -248 -21q-125 0 -215 59q-88 58 -88 146zM471 909q0 -33 78 -32q92 8 115 8q29 14 28 45v51l2 9q2 9 5 30.5l6 44.5l6 55q0 16 -21 84h-35q-39 0 -116 -41q0 -10 -35 -102q-33 -84 -33 -152z" />
<glyph unicode="&#xb8;" horiz-adv-x="733" d="M2 -489q0 90 109 114q133 6 182 10l78 19q102 14 155 49q-59 37 -90 37q-20 0 -55 -4l-55 -6q-59 0 -95 41q-8 25 -26 53q6 0 10 29q4 39 6 47l6 12l27 57q6 35 37 97q6 4 74 20q53 -49 59 -133q-4 -8 -4 -43q2 0 5 1t5 1q8 0 41 -4q104 -33 158 -62q88 -47 90 -108 q16 -14 16 -35q0 -4 -45 -90q-39 -72 -121 -94q-8 -2 -145 -31q-139 -27 -139 -31h2q-6 0 -13.5 1t-11.5 2t-6 1l-92 -12q-27 -4 -50.5 -7t-33.5 -5l-10 -2q-25 0 -47 24q-21 23 -21 52z" />
<glyph unicode="&#xb9;" horiz-adv-x="532" d="M129 575l94 607q0 6 17 141q14 102 90 102q29 0 55 -20q25 -41 59 -135l-127 -731q2 -33 6.5 -79t8.5 -110q14 -150 14 -192v-8q0 -6 16 -23v-84l-32 -27q-27 14 -60 19q-109 106 -120 262q-5 32 -21 278z" />
<glyph unicode="&#xba;" horiz-adv-x="729" d="M74 1552q6 34 30 93q25 33 156 75q10 -2 41 -2l51 11q0 2 -2 2q53 0 172 -54q4 -6 23 -20q29 0 49 -19q66 -53 65 -100q0 -45 -34 -92q-33 -45 -80 -57q-18 -10 -38 -23l-11 -6q-2 0 -58 -6q-10 -2 -19 -3t-15.5 -2t-11.5 -2t-8 -1h-3q-59 0 -152 34q-25 10 -82 50 q-12 25 -43 61q-2 24 -30 61zM295 1540q35 -33 90 -33h-2q0 2 76 21q-53 49 -123 49q-23 0 -41 -14v-23z" />
<glyph unicode="&#xbb;" horiz-adv-x="1435" d="M0 76q0 61 145 157q137 94 211 109q14 0 15 33q0 16 -2 20q-35 43 -119 117q-84 76 -172 94l-70 121q0 35 37 70q35 33 78 32q53 0 125 -55q20 -12 119 -78q84 -94 237 -221q115 -72 115 -141q0 -35 -21 -74q-23 -43 -39 -49q-270 -98 -544 -217q-18 0 -70 -10 q-45 53 -45 92zM674 84q0 63 145 160q131 90 213 102q16 2 17 37q0 16 -2 20q-40 46 -117 117q-109 80 -174 94l-74 121q0 37 39 72q37 31 80 31q55 0 125 -56l121 -77q74 -82 231 -222q115 -72 115 -141q0 -37 -21 -76q-18 -41 -39 -49q-266 -98 -538 -217q-31 0 -70 -8 q-51 57 -51 92z" />
<glyph unicode="&#xbc;" horiz-adv-x="2740" d="M1266 806.5q0 61.5 35 160.5l53 143q2 2 9.5 8t11.5 10q6 12 14 34l23.5 62t29.5 72l41 115q37 98 68 98q29 0 73 -34q43 -33 43 -60q0 -2 -16 -24q-8 -57 -45 -138q-10 -20 -63 -168q-61 -172 -62 -213q0 -49 45 -49h613q169 0 190 37q39 100 106 348l39 154l133 231 q49 84 84 111q63 -29 115 -59q-86 -168 -182 -392q-59 -197 -107 -409q15 -12 43 -13l21 5q6 1 12 3q3 1 4 1q51 0 51 -54q0 -43 -41 -57q-98 -35 -102 -39q-25 -16 -31 -33q-27 -72 -47 -202q0 -14 -3 -113.5t-5 -173.5q16 -18 19 -33q0 -10 -9 -67q-23 -14 -51 -50 q-86 12 -110 58q-49 84 -50 176q0 111 31 276q2 4 19 41l18 97q0 37 -37 36h-4l-639 -47q-92 10 -281 25q-59 65 -59 126.5zM1694 1599q0 -52 -43 -98l-63 -61q-14 -27 -60 -78q-250 -193 -442 -418q-614 -731 -678 -1065h-102q-23 57 -31 70q-18 34 -19 49q0 47 62 201 q57 145 72 166l141 219q82 127 350 456l252 293q31 35 297 260q168 143 205 144q20 0 41 -64q18 -47 18 -74zM129 575l94 607q0 6 17 141q14 102 90 102q29 0 55 -20q25 -41 59 -135l-127 -731q2 -33 6.5 -79t8.5 -110q14 -150 14 -192v-8q0 -6 16 -23v-84l-32 -27 q-27 14 -60 19q-109 106 -120 262q-5 32 -21 278z" />
<glyph unicode="&#xbd;" horiz-adv-x="2729" d="M1266 1266q0 37 49 59q4 2 32 12.5t52 20.5q51 31 187 90l333 96q190 57 330 58q74 0 80 -3q206 -77 221 -196q-4 -4 -12 -29q16 -10 16 -43q0 -82 -53 -190q-55 -113 -123 -174q-6 -18 -35 -64q-74 -94 -221 -229q-22 -22 -436 -387q0 -10 -6 -35q-6 -2 -39 -29 q31 -25 80 -24q12 2 84 20q72 20 118 27q287 39 627 39l45 -6q41 -8 60 -9q20 -14 20 -20q0 -53 -86 -70l-111 -22q8 -4 31 -4q-281 -16 -391 -62q-25 -2 -182 -26q-205 -29 -365 -29q-15 0 -92 -6l-78 -6q-33 0 -65 20q0 16 -39 49l1 2q1 2 1 4q0 9 -6 31l-9 33q0 12 3 18 q272 197 391 299l217 193l92 100q18 8 51 31q102 94 252 297q94 174 94 254q0 39 -35 61q-39 27 -88 27q-104 0 -559 -133q-27 -8 -176 -78l-139 -62q-4 -4 -12 -4q-25 0 -68 39q-41 37 -41 60zM1694 1599q0 -52 -43 -98l-63 -61q-14 -27 -60 -78q-250 -193 -442 -418 q-614 -731 -678 -1065h-102q-23 57 -31 70q-18 34 -19 49q0 47 62 201q57 145 72 166l141 219q82 127 350 456l252 293q31 35 297 260q168 143 205 144q20 0 41 -64q18 -47 18 -74zM129 575l94 607q0 6 17 141q14 102 90 102q29 0 55 -20q25 -41 59 -135l-127 -731 q2 -33 6.5 -79t8.5 -110q14 -150 14 -192v-8q0 -6 16 -23v-84l-32 -27q-27 14 -60 19q-109 106 -120 262q-5 32 -21 278z" />
<glyph unicode="&#xbe;" horiz-adv-x="3688" d="M2214 806.5q0 61.5 35 160.5l53 143q2 2 9.5 8t11.5 10q6 12 14 34l23.5 62t29.5 72l41 115q37 98 68 98q29 0 73 -34q43 -33 43 -60q0 -2 -16 -24q-8 -57 -45 -138q-10 -20 -63 -168q-61 -172 -62 -213q0 -49 45 -49h613q169 0 190 37q39 100 106 348l39 154l133 231 q49 84 84 111q63 -29 115 -59q-86 -168 -182 -392q-59 -197 -107 -409q15 -12 43 -13l21 5q6 1 12 3q3 1 4 1q51 0 51 -54q0 -43 -41 -57q-98 -35 -102 -39q-25 -16 -31 -33q-27 -72 -47 -202q0 -14 -3 -113.5t-5 -173.5q16 -18 19 -33q0 -10 -9 -67q-23 -14 -51 -50 q-86 12 -110 58q-49 84 -50 176q0 111 31 276q2 4 19 41l18 97q0 37 -37 36h-4l-639 -47q-92 10 -281 25q-59 65 -59 126.5zM2642 1599q0 -52 -43 -98l-63 -61q-14 -27 -60 -78q-250 -193 -442 -418q-614 -731 -678 -1065h-102q-23 57 -31 70q-18 34 -19 49q0 47 62 201 q57 145 72 166l141 219q82 127 350 456l252 293q31 35 297 260q168 143 205 144q20 0 41 -64q18 -47 18 -74zM35 76q3 0 12 55q152 102 412 129q426 49 682 207q98 59 98 94q0 33 -82 82q-68 39 -100 47q-287 78 -346 78q-12 -6 -25 -14q-10 -2 -100 -2q-82 0 -174 16 l-41 25q0 4 12 59q6 39 12 57q49 27 148 64q264 92 391 174q113 70 242 207q8 8 26 59q-27 31 -125 31q-12 0 -143 -21l-141 -20q-20 0 -43 16l-9 -20l-225 -64l-168 -53q-115 -39 -121 -39q-41 0 -67 45q-33 59 -49 72l41 49q201 72 299 96q125 31 350 76q199 41 227 41 q6 0 22.5 -8t20.5 -8q2 0 6 1t11.5 2t13.5 1q25 4 24 4q55 0 131 -29q20 -14 101 -61q4 -14 16 -43q16 -45 17 -49q0 -31 -23 -89q-10 -4 -31 -24v-4q0 -41 -92 -121q-86 -74 -147 -98q-47 -43 -142 -109q-35 -14 -145 -72q12 -33 203 -63q109 -29 182 -59q231 -96 231 -277 q0 -90 -229 -205q-106 -51 -127 -65q-104 -16 -467 -115q-100 -8 -258 -35q-33 -6 -135 -51q-90 -39 -96 -39q-14 0 -47 28.5t-33 43.5v-2z" />
<glyph unicode="&#xbf;" horiz-adv-x="1210" d="M8 -84q0 12 15 33q-4 12 -5 20q0 29 23 68q92 170 344 260q57 18 420 100q16 4 33 21q14 37 36 121q4 115 23 272q2 8 13.5 38l19.5 52q4 12 4 23q0 12 -8 41l26 26q139 0 140 -129q-10 -33 -25 -94q-6 -154 -49 -393q0 -2 1 -6t1 -7q0 -41 -27 -126q-20 -41 -80 -41 q-6 0 -12 2l-12 4q-14 0 -64 -15q-47 -4 -139 -18l-252 -82q-40 -22 -117 -68q-104 -68 -104 -116q0 -96 303 -97q6 0 15.5 -1t25.5 -2t29 -1q27 -2 57 -2h12l396 25h2q41 0 104 -43q-12 -16 -20 -66q-51 -41 -113 -65q-115 -43 -182 -43h-254q-399 0 -565 174l-9 72z M961 1294q0 4 14 41q16 39 16 43q20 25 41 25q23 0 105 -21q57 -12 57 -59q0 -35 -43 -78q-45 -45 -78 -45q-25 0 -69 35q-43 34 -43 59z" />
<glyph unicode="&#xc0;" d="M18 104q0 53 9 64l57 61q40 46 61 93q2 2 2 8l-2 -4q-2 0 -12 53q-2 4 -2 12q0 23 19 35q18 10 59 27q53 23 70 47l63 104q20 18 49 51l227 365l11 41l104 172q0 6 4 35l54 73q20 6 20 9v2q68 0 107 -119q6 -25 38 -123q35 -100 52 -166q23 -152 53 -285q23 -94 98 -276 q8 -14 37 -59q27 -39 27 -58q0 -59 -72 -59h-64q-8 0 -47 26q-47 31 -57 35q-104 43 -184 58q-217 43 -348 43q-14 0 -27 -13l-14 13q-66 -4 -119 -115q-27 -31 -55 -70q-2 -14 -13 -41q-2 -2 -10 -20.5t-16 -30.5l-95 -78q-18 12 -55 33q-29 22 -29 57zM467 514 q4 -2 131 -20q68 -4 260 -29q47 -20 70 -21h26q2 4 4.5 8.5t3.5 6.5t1 4q-3 9 -19 43l-20 39l-58 282q-2 4 -10 13q0 12 -4 73l-14 70q-16 53 -47 78q-29 -39 -78 -152q-8 -27 -31 -49l-39 -43q-39 -78 -98 -174q-8 -6 -31 -29q-12 -30 -47 -100zM487 1595q0 68 37 68 q18 0 99 -35l231 -104l209 -101q29 -39 29 -55q0 -33 -27 -74q-240 61 -569 236q-9 6 -9 65z" />
<glyph unicode="&#xc1;" d="M18 104q0 53 9 64l57 61q40 46 61 93q2 2 2 8l-2 -4q-2 0 -12 53q-2 4 -2 12q0 23 19 35q18 10 59 27q53 23 70 47l63 104q20 18 49 51l227 365l11 41l104 172q0 6 4 35l54 73q20 6 20 9v2q68 0 107 -119q6 -25 38 -123q35 -100 52 -166q23 -152 53 -285q23 -94 98 -276 q8 -14 37 -59q27 -39 27 -58q0 -59 -72 -59h-64q-8 0 -47 26q-47 31 -57 35q-104 43 -184 58q-217 43 -348 43q-14 0 -27 -13l-14 13q-66 -4 -119 -115q-27 -31 -55 -70q-2 -14 -13 -41q-2 -2 -10 -20.5t-16 -30.5l-95 -78q-18 12 -55 33q-29 22 -29 57zM467 514 q4 -2 131 -20q68 -4 260 -29q47 -20 70 -21h26q2 4 4.5 8.5t3.5 6.5t1 4q-3 9 -19 43l-20 39l-58 282q-2 4 -10 13q0 12 -4 73l-14 70q-16 53 -47 78q-29 -39 -78 -152q-8 -27 -31 -49l-39 -43q-39 -78 -98 -174q-8 -6 -31 -29q-12 -30 -47 -100zM469 1366v2q0 2 1 5t2 8 t1 11.5t1 13.5t2 11l1 4l238 99q23 20 39 26q197 92 233 92q16 0 39 -12t23 -24q0 -45 -201 -160l-17.5 -7l-21.5 -8.5l-33 -13.5q-190 -117 -231 -117q-76 0 -76 70z" />
<glyph unicode="&#xc2;" d="M18 104q0 53 9 64l57 61q40 46 61 93q2 2 2 8l-2 -4q-2 0 -12 53q-2 4 -2 12q0 23 19 35q18 10 59 27q53 23 70 47l63 104q20 18 49 51l227 365l11 41l104 172q0 6 4 35l54 73q20 6 20 9v2q68 0 107 -119q6 -25 38 -123q35 -100 52 -166q23 -152 53 -285q23 -94 98 -276 q8 -14 37 -59q27 -39 27 -58q0 -59 -72 -59h-64q-8 0 -47 26q-47 31 -57 35q-104 43 -184 58q-217 43 -348 43q-14 0 -27 -13l-14 13q-66 -4 -119 -115q-27 -31 -55 -70q-2 -14 -13 -41q-2 -2 -10 -20.5t-16 -30.5l-95 -78q-18 12 -55 33q-29 22 -29 57zM410 1403 q65 15 172 104l170 140h6q33 0 102 -31q72 -37 98 -66q35 -23 152 -108q100 -76 100 -144q0 -53 -63 -53q-3 0 -30.5 6t-31.5 6q-9 0 -141 99q-135 100 -139 100q-31 0 -53 -22q-6 -12 -27 -33q-80 -63 -133 -101q-23 -14 -84 -14q-53 0 -76 41q-4 12 -11 38t-11 38z M467 514q4 -2 131 -20q68 -4 260 -29q47 -20 70 -21h26q2 4 4.5 8.5t3.5 6.5t1 4q-3 9 -19 43l-20 39l-58 282q-2 4 -10 13q0 12 -4 73l-14 70q-16 53 -47 78q-29 -39 -78 -152q-8 -27 -31 -49l-39 -43q-39 -78 -98 -174q-8 -6 -31 -29q-12 -30 -47 -100z" />
<glyph unicode="&#xc3;" d="M18 104q0 53 9 64l57 61q40 46 61 93q2 2 2 8l-2 -4q-2 0 -12 53q-2 4 -2 12q0 23 19 35q18 10 59 27q53 23 70 47l63 104q20 18 49 51l227 365l11 41l104 172q0 6 4 35l54 73q20 6 20 9v2q68 0 107 -119q6 -25 38 -123q35 -100 52 -166q23 -152 53 -285q23 -94 98 -276 q8 -14 37 -59q27 -39 27 -58q0 -59 -72 -59h-64q-8 0 -47 26q-47 31 -57 35q-104 43 -184 58q-217 43 -348 43q-14 0 -27 -13l-14 13q-66 -4 -119 -115q-27 -31 -55 -70q-2 -14 -13 -41q-2 -2 -10 -20.5t-16 -30.5l-95 -78q-18 12 -55 33q-29 22 -29 57zM360 1432q0 8 29 30 q39 53 180 160q4 2 19 2q41 29 76 29q89 0 172 -74q98 -86 127 -86q31 0 192 78q147 72 148 76h-3q6 0 29 -7v-38q0 -16 -37 -39q0 -6 -4 -43q-219 -170 -332 -170q-35 0 -163 80q-115 72 -115 81h4q-28 0 -135 -92l-107 -94q-6 0 -26 6l-27 2q-27 62 -27 99zM467 514 q4 -2 131 -20q68 -4 260 -29q47 -20 70 -21h26q2 4 4.5 8.5t3.5 6.5t1 4q-3 9 -19 43l-20 39l-58 282q-2 4 -10 13q0 12 -4 73l-14 70q-16 53 -47 78q-29 -39 -78 -152q-8 -27 -31 -49l-39 -43q-39 -78 -98 -174q-8 -6 -31 -29q-12 -30 -47 -100z" />
<glyph unicode="&#xc4;" d="M18 104q0 53 9 64l57 61q40 46 61 93q2 2 2 8l-2 -4q-2 0 -12 53q-2 4 -2 12q0 23 19 35q18 10 59 27q53 23 70 47l63 104q20 18 49 51l227 365l11 41l104 172q0 6 4 35l54 73q20 6 20 9v2q68 0 107 -119q6 -25 38 -123q35 -100 52 -166q23 -152 53 -285q23 -94 98 -276 q8 -14 37 -59q27 -39 27 -58q0 -59 -72 -59h-64q-8 0 -47 26q-47 31 -57 35q-104 43 -184 58q-217 43 -348 43q-14 0 -27 -13l-14 13q-66 -4 -119 -115q-27 -31 -55 -70q-2 -14 -13 -41q-2 -2 -10 -20.5t-16 -30.5l-95 -78q-18 12 -55 33q-29 22 -29 57zM465 1511 q0 61 49 103l84 -33q74 -33 74 -68q0 -39 -31 -69.5t-72 -30.5t-71 31q-33 30 -33 67zM467 514q4 -2 131 -20q68 -4 260 -29q47 -20 70 -21h26q2 4 4.5 8.5t3.5 6.5t1 4q-3 9 -19 43l-20 39l-58 282q-2 4 -10 13q0 12 -4 73l-14 70q-16 53 -47 78q-29 -39 -78 -152 q-8 -27 -31 -49l-39 -43q-39 -78 -98 -174q-8 -6 -31 -29q-12 -30 -47 -100zM893 1511q0 53 10 80h66q92 0 92 -118q0 -72 -68 -72q-100 -1 -100 110z" />
<glyph unicode="&#xc5;" d="M18 104q0 53 9 64l57 61q40 46 61 93q2 2 2 8l-2 -4q-2 0 -12 53q-2 4 -2 12q0 23 19 35q18 10 59 27q53 23 70 47l63 104q20 18 49 51l227 365l11 41l104 172q0 6 4 35l54 73q20 6 20 9v2q68 0 107 -119q6 -25 38 -123q35 -100 52 -166q23 -152 53 -285q23 -94 98 -276 q8 -14 37 -59q27 -39 27 -58q0 -59 -72 -59h-64q-8 0 -47 26q-47 31 -57 35q-104 43 -184 58q-217 43 -348 43q-14 0 -27 -13l-14 13q-66 -4 -119 -115q-27 -31 -55 -70q-2 -14 -13 -41q-2 -2 -10 -20.5t-16 -30.5l-95 -78q-18 12 -55 33q-29 22 -29 57zM467 514 q4 -2 131 -20q68 -4 260 -29q47 -20 70 -21h26q2 4 4.5 8.5t3.5 6.5t1 4q-3 9 -19 43l-20 39l-58 282q-2 4 -10 13q0 12 -4 73l-14 70q-16 53 -47 78q-29 -39 -78 -152q-8 -27 -31 -49l-39 -43q-39 -78 -98 -174q-8 -6 -31 -29q-12 -30 -47 -100zM561 1458q8 57 8 92v11v2 q0 31 80 84q53 35 156 34q35 0 98 -18q33 -12 88 -51q33 -92 33 -99q0 -33 -12 -69q-10 -27 -54 -62l-73 -30q-61 -25 -121 -25q-55 0 -125 35q-78 41 -78 96zM676 1475q2 -2 11 -8.5t24 -14.5q12 -6 47 -6q37 0 84 12q70 23 69.5 57.5t-137.5 51.5h-35q-6 -6 -20 -13 q-43 -40 -43 -61v-18z" />
<glyph unicode="&#xc6;" horiz-adv-x="1980" d="M45 106q0 35 41 87q47 57 68 98q41 82 102 149q29 29 131 148l305 381l246 274l156 223q25 35 57 41q100 16 281 33q14 2 297 2q176 0 176 -67q0 -86 -209 -105l-234 -16q-180 -16 -250 -74q10 -57 35 -129q-4 -8 -12 -14q2 -10 16 -176l11 -123q12 -127 41 -127 q20 0 165 26l29 21q129 16 172 24q111 18 123 19q131 0 131 -84q0 -41 -57 -60q-170 -51 -393 -112q-86 -16 -193 -58q-8 -88 -8 -125q0 -106 53 -118l467 71q10 8 20 9q27 0 54 -25q29 -25 28 -39q0 -76 -280 -160q-227 -66 -332 -65q-188 0 -188 168q0 39 12 94 q0 4 -27 143q-8 14 -24 15q-18 0 -185 -21l-184 -20q-4 0 -12 1t-24.5 2t-31.5 1l-67 4q-31 0 -80 -57q-35 -25 -59 -54l-119 -170q-98 -139 -139 -139h-70q-39 88 -39 104zM700 631h154q8 4 47 12q80 10 180 45q0 2 -4 39l-4 27v202q0 47 -31 103q-43 -33 -190 -205 q-152 -176 -152 -188v-35z" />
<glyph unicode="&#xc7;" horiz-adv-x="1884" d="M35 559q0 65 55 191q25 57 143 168q156 143 291 206q432 197 668 244q16 8 72 25l301 45q16 2 47 12q43 14 51 14q49 0 94 -34q43 -34 43 -74q0 -25 -22 -64q-12 -10 -54 -32q-84 0 -227 -21q-35 -12 -108 -33l-263 -61q-197 -47 -571 -258q-59 -33 -115 -68 q-102 -61 -166 -203q-10 -25 -10 -104q0 -94 111 -170q100 -70 215 -90q4 -2 76 -19q12 -2 23 -5l18.5 -5t13.5 -3t9 -2l3 -1l55 4q37 2 76 2q12 0 64 -6l55 -8l86 12q10 2 107 12l780 52h4q31 0 41 -31q0 -2 1 -9t2 -22.5t1 -34.5q-20 -16 -47 -30q-340 -100 -481 -101 q-2 0 -29 6q-28 6 -31 7l-4 -2q-4 -2 -12 -5.5t-19 -7.5q-27 -12 -39 -12q-31 0 -264 -14q-35 -12 -47 -13l-2 1q-2 1 -6 3.5t-8 4.5l-8 4t-8 3l-3 1q-4 0 -34 -10l-29 -11q-16 -4 -84 -4q-76 0 -195 27l-190 39q-53 10 -53 43v2q-78 31 -125 63q-143 109 -234 258 q0 12 -4 78q-12 45 -14 47v-6zM584 -485q0 84 104 108q20 0 77.5 4t94.5 6l76 19q102 16 147 47q-57 35 -86 35q-20 0 -53 -4l-51 -6q-55 0 -88 38q-2 8 -29 50q6 4 10 28q2 8 3.5 16.5t1.5 12.5t1 8t1 6q2 6 6 15l24 55q8 39 35 90q6 2 72 18q49 -45 55 -127q-4 -8 -4 -38 h8q25 0 41 -2q113 -37 150 -58q80 -43 86 -104q14 -23 14 -33t-41 -86q-35 -68 -115 -88q-29 -10 -139 -31q-133 -27 -133 -29h2q-6 0 -12 1.5t-11 2.5l-4 1q-2 0 -88 -12.5t-90 -12.5q-23 0 -45 23q-20 20 -20 47z" />
<glyph unicode="&#xc8;" horiz-adv-x="1433" d="M35 82q2 6 6 19.5t12 37t17 47.5q37 111 49 154l41 143l-2 -2q-2 0 -33 49q0 12 -19 58q49 31 101 76q8 10 55 180q0 -2 -2 -2v39l10 12q10 10 11 18q0 12 -31 31q-27 14 -51 14h-4q-16 59 -17 78q0 39 45 58q90 33 232 32q0 -2 18 -6l2 1q2 1 6 2t9.5 3t12.5 5.5t15 5.5 q287 14 496 26l307 19h2q27 0 127 -41q6 -2 55 -2q29 -4 47 -19q-49 -23 -75 -22h6q-4 -2 -49 -13h4q0 2 -62 2q-4 -2 -12 -5t-15.5 -5l-15.5 -4q-65 -3 -172 -18l-217 -33q-4 0 -12 2l-17 4q0 -2 -444 -76q-63 -78 -84 -268q29 -16 68 -16q4 0 22.5 6t22.5 6l4 -1 q4 -1 12 -4t19 -5q86 0 376 10l240 4h4q31 0 33 -14q8 -37 12 -58q-43 -29 -168 -59q-115 -29 -307 -29q-139 0 -371 -33q-27 -2 -32 -34l-11 -41q-53 -137 -53 -178v-35q9 -3 25 -6l591 79q18 0 105 7h12l88 8q6 0 25 -13q10 -2 115 -2q29 6 86 15q37 0 100 -25l16 -49 q2 2 2 4q0 -25 -32 -51q-31 -25 -58 -25q-6 2 -18 4.5t-23 2.5l-4 -2q-4 -1 -12 -4t-19 -5q-37 -12 -38 -12l-322 -29q-94 -8 -385 -53l-244 -37q-10 0 -110 23q-84 20 -111 20h-2q-4 16 -9 27zM469 1511q0 68 37 68q16 0 96 -35l234 -104q20 -8 49.5 -23.5t76 -37 t82.5 -40.5q27 -35 27 -55q0 -27 -27 -74q-236 61 -567 236q-8 6 -8 65z" />
<glyph unicode="&#xc9;" horiz-adv-x="1433" d="M35 82q2 6 6 19.5t12 37t17 47.5q37 111 49 154l41 143l-2 -2q-2 0 -33 49q0 12 -19 58q49 31 101 76q8 10 55 180q0 -2 -2 -2v39l10 12q10 10 11 18q0 12 -31 31q-27 14 -51 14h-4q-16 59 -17 78q0 39 45 58q90 33 232 32q0 -2 18 -6l2 1q2 1 6 2t9.5 3t12.5 5.5t15 5.5 q287 14 496 26l307 19h2q27 0 127 -41q6 -2 55 -2q29 -4 47 -19q-49 -23 -75 -22h6q-4 -2 -49 -13h4q0 2 -62 2q-4 -2 -12 -5t-15.5 -5l-15.5 -4q-65 -3 -172 -18l-217 -33q-4 0 -12 2l-17 4q0 -2 -444 -76q-63 -78 -84 -268q29 -16 68 -16q4 0 22.5 6t22.5 6l4 -1 q4 -1 12 -4t19 -5q86 0 376 10l240 4h4q31 0 33 -14q8 -37 12 -58q-43 -29 -168 -59q-115 -29 -307 -29q-139 0 -371 -33q-27 -2 -32 -34l-11 -41q-53 -137 -53 -178v-35q9 -3 25 -6l591 79q18 0 105 7h12l88 8q6 0 25 -13q10 -2 115 -2q29 6 86 15q37 0 100 -25l16 -49 q2 2 2 4q0 -25 -32 -51q-31 -25 -58 -25q-6 2 -18 4.5t-23 2.5l-4 -2q-4 -1 -12 -4t-19 -5q-37 -12 -38 -12l-322 -29q-94 -8 -385 -53l-244 -37q-10 0 -110 23q-84 20 -111 20h-2q-4 16 -9 27zM514 1255v2q0 2 1 5.5t2 8.5t1 11t1 13.5t2 11.5l1 4l238 98q33 25 39 27 q201 94 233 94q14 0 39 -14q23 -12 23 -25q0 -45 -201 -160l-17.5 -7t-21.5 -8t-33 -13q-186 -115 -231 -115q-76 -1 -76 67z" />
<glyph unicode="&#xca;" horiz-adv-x="1433" d="M35 82q2 6 6 19.5t12 37t17 47.5q37 111 49 154l41 143l-2 -2q-2 0 -33 49q0 12 -19 58q49 31 101 76q8 10 55 180q0 -2 -2 -2v39l10 12q10 10 11 18q0 12 -31 31q-27 14 -51 14h-4q-16 59 -17 78q0 39 45 58q90 33 232 32q0 -2 18 -6l2 1q2 1 6 2t9.5 3t12.5 5.5t15 5.5 q287 14 496 26l307 19h2q27 0 127 -41q6 -2 55 -2q29 -4 47 -19q-49 -23 -75 -22h6q-4 -2 -49 -13h4q0 2 -62 2q-4 -2 -12 -5t-15.5 -5l-15.5 -4q-65 -3 -172 -18l-217 -33q-4 0 -12 2l-17 4q0 -2 -444 -76q-63 -78 -84 -268q29 -16 68 -16q4 0 22.5 6t22.5 6l4 -1 q4 -1 12 -4t19 -5q86 0 376 10l240 4h4q31 0 33 -14q8 -37 12 -58q-43 -29 -168 -59q-115 -29 -307 -29q-139 0 -371 -33q-27 -2 -32 -34l-11 -41q-53 -137 -53 -178v-35q9 -3 25 -6l591 79q18 0 105 7h12l88 8q6 0 25 -13q10 -2 115 -2q29 6 86 15q37 0 100 -25l16 -49 q2 2 2 4q0 -25 -32 -51q-31 -25 -58 -25q-6 2 -18 4.5t-23 2.5l-4 -2q-4 -1 -12 -4t-19 -5q-37 -12 -38 -12l-322 -29q-94 -8 -385 -53l-244 -37q-10 0 -110 23q-84 20 -111 20h-2q-4 16 -9 27zM397 1358q59 14 172 104l170 140h4q34 0 105 -31q68 -35 96 -66 q49 -31 154 -108q100 -76 100 -144q0 -53 -63 -53q-3 0 -31 6q-27 6 -33 6t-139 99q-131 100 -141 100q-29 0 -52 -22q-12 -18 -26 -33q-68 -55 -135 -101q-20 -14 -82 -14q-53 0 -76 41q-13 39 -23 76z" />
<glyph unicode="&#xcb;" horiz-adv-x="1433" d="M35 82q6 23 33 104l51 154l39 143v-2q-2 0 -33 49q-4 23 -19 58q43 27 99 76q10 14 57 180l-2 -2v39l10 12q10 14 11 18q0 10 -33 31q-27 14 -49 14h-4q-16 59 -17 78q0 39 45 58q90 33 232 32q0 -2 18 -6l2 1q2 1 6 2t9.5 3t12.5 5.5t15 5.5q287 14 496 26l307 19h2 q27 0 127 -41q6 -2 55 -2q29 -4 47 -19q-49 -23 -75 -22h6q-4 -2 -49 -13h4q0 2 -62 2q-4 -2 -12 -5t-15.5 -5l-15.5 -4q-65 -3 -172 -18l-217 -33q-4 0 -12 2l-17 4q0 -2 -444 -76q-61 -78 -86 -268q29 -16 70 -16q4 0 22.5 6t22.5 6l4 -1q4 -1 12 -4t19 -5q86 0 376 10 l240 4h4q31 0 33 -14q8 -37 12 -58q-43 -29 -168 -59q-115 -29 -307 -29q-139 0 -371 -33q-27 -2 -32 -34l-11 -41q-53 -137 -53 -178v-35l9 -2q9 -2 16 -4l591 79q18 0 105 7h12l88 8q6 0 25 -13q10 -2 115 -2q29 6 86 15q37 0 100 -25l16 -49q2 2 2 4q0 -25 -32 -51 q-31 -25 -58 -25q-6 2 -18 4.5t-23 2.5l-4 -2q-4 -1 -12 -4t-19 -5q-37 -12 -38 -12l-322 -29q-94 -8 -385 -53l-244 -37q-10 0 -110 23q-84 20 -111 20h-4q-8 25 -8 31zM492 1380q0 65 49 105l84 -33q72 -29 71.5 -67.5t-28.5 -67.5q-33 -33 -72 -33q-41 0 -72 31 q-32 26 -32 65zM920 1380q0 53 10 80h63q94 0 94 -119q0 -72 -67 -71q-100 -1 -100 110z" />
<glyph unicode="&#xcc;" horiz-adv-x="632" d="M41 1479q0 66 37 65q23 0 96 -33l234 -104q51 -23 208 -100q27 -35 27 -56q0 -33 -27 -73q-244 61 -567 233q-8 7 -8 68zM137 233q0 606 123 820q66 115 107 114q61 0 61 -125q0 -12 -35 -182q-37 -176 -61 -254q0 -16 -21 -125q-27 -156 -84 -428q-18 -12 -37 -26 q-20 16 -36 32q-17 29 -17 174z" />
<glyph unicode="&#xcd;" horiz-adv-x="593" d="M27 1268l1 4q1 4 2 11t1 13q2 12 5 23l1 4l235 100q31 23 41 27q197 92 234 92q14 0 39 -14q23 -12 22 -25q0 -45 -200 -160l-70 -26q-190 -117 -236 -117q-75 0 -75 68zM96 233q0 606 123 820q66 115 107 114q61 0 61 -125q0 -12 -35 -182q-37 -176 -61 -254 q0 -2 -21 -125q-27 -156 -84 -428q-10 -6 -36 -26q-20 16 -37 32q-17 29 -17 174z" />
<glyph unicode="&#xce;" horiz-adv-x="821" d="M41 1343q61 14 172 107l170 139h4q29 0 105 -33q76 -37 98 -63q16 -10 151 -111q100 -76 101 -143q0 -51 -64 -51q-3 0 -30 6q-18 4 -31 4q-6 0 -142 100q-131 100 -141 101q-27 0 -51 -25q-12 -18 -27 -33q-68 -55 -135 -100q-18 -12 -82 -12q-53 0 -76 41 q-4 12 -11 36.5t-11 36.5zM209 233q0 610 121 820q66 115 108 114q61 0 62 -125q0 -12 -35 -182q-37 -176 -62 -254q0 -2 -20 -125q-27 -156 -84 -428q-12 -6 -39 -26q-20 16 -37 32q-14 27 -14 174z" />
<glyph unicode="&#xcf;" horiz-adv-x="626" d="M39 1303q0 66 47 104q55 -20 86 -33q72 -31 72 -67q0 -39 -31 -70t-72 -31t-71.5 31t-30.5 66zM137 233q0 606 123 820q66 115 107 114q61 0 61 -125q0 -12 -35 -182q-37 -176 -61 -254q0 -16 -21 -125q-27 -156 -84 -428q-18 -12 -37 -26q-20 16 -36 32q-17 29 -17 174z M467 1303q0 57 8 79h66q92 0 92 -116q0 -72 -68 -72q-98 0 -98 109z" />
<glyph unicode="&#xd1;" horiz-adv-x="1245" d="M29 299l252 510q0 2 125 240l40 100q31 68 80 68q35 0 66 -31q37 -33 57 -76q57 -127 117 -291q2 -2 47 -180q2 -2 5 -6t6 -9.5t5 -9.5q35 -109 45 -135q35 -94 76 -162q25 25 72 119q80 164 125 271q27 104 90 282q6 8 10 12.5t11.5 14.5l15.5 20q0 16 6 41l37 66 q20 10 45 43q12 31 37 67q4 2 20 2q53 0 54 -47q0 -16 -56 -143v-4q0 -20 -6 -57l-29 -89l-65 -147q-23 -53 -43 -137q-18 -96 -19 -101l-86 -184q-51 -111 -59 -180q-25 -68 -25 -80t7 -20q-6 -2 -64 -27q-41 -18 -45 -19q-14 0 -45 19q-33 20 -41 33q-37 57 -174 391 q-10 49 -37 131q-14 23 -31 61q-3 40 -12 80q-20 76 -96 228q-37 -12 -68 -91l-82 -198q-31 -51 -131 -238q-10 -29 -76 -178q-25 -22 -49 -55q-8 -2 -20 -2q-31 0 -61.5 34.5t-30.5 63.5zM555 1399q2 4 14 16l17 15q39 53 180 159l2 1q2 1 6 2t8 1q39 27 74 27 q89 0 172 -74q96 -84 129 -84q35 0 193 76q145 70 145 76v2l29 -8v-39q0 -14 -37 -39q0 -4 -4 -41q-221 -172 -332 -172q-39 0 -166 82q-113 70 -113 80h2q-27 0 -133 -93l-106 -92h-2q-2 0 -5 1t-8.5 2t-11.5 1q-10 1 -21 4l-5 1q-27 61 -27 96z" />
<glyph unicode="&#xd2;" horiz-adv-x="1554" d="M18 565l1 4q1 4 4.5 12.5t5.5 18.5t5 18.5t5 13.5l2 5q2 14 4 45t4 43q33 47 62 94q29 49 161 185q6 6 45 18q4 4 12.5 9t22.5 16q2 0 9.5 3l20.5 8t31.5 11t44 15.5t54.5 17.5q37 12 80 24q311 47 461 48q319 0 526 -146q135 -94 135 -309q0 -47 -8 -94q18 -10 18 -21 l-49 -80l8 -12q-2 0 -32 -76q-12 -9 -25 -24q-78 -129 -420 -303q-80 -41 -243 -86q-184 -53 -277 -54q-45 0 -186 47q-301 102 -398 246q-84 125 -84 303zM150 555l10 -8q-2 -10 -2 -33q0 -174 180 -283q158 -94 369 -94q212 0 528 166q354 186 354 379q0 3 6.5 24.5 t6.5 24.5q0 65 -62 148q-35 47 -168 102q-131 55 -211 55q-10 0 -28 -2q-12 -2 -24 -3l-5 -1l-103 21q-2 0 -28 -11l-29 -10q0 -2 -78 -6l-75 -4q-10 0 -21 4q-18 6 -20 6l-60 -29l-151 -36q-106 -27 -162 -72q2 -12 6 -31q0 -16 -66 -59q-59 -27 -112 -107 q-55 -82 -55 -141zM549 1559q0 68 37 67q16 0 96 -35l233 -102l209 -100q27 -35 27 -58q0 -31 -25 -74q-238 59 -569 236q-8 7 -8 66z" />
<glyph unicode="&#xd3;" horiz-adv-x="1554" d="M18 565l1 4q1 4 4.5 12.5t5.5 18.5t5 18.5t5 13.5l2 5q2 14 4 45t4 43q33 47 62 94q29 49 161 185q6 6 45 18q4 4 12.5 9t22.5 16q2 0 9.5 3l20.5 8t31.5 11t44 15.5t54.5 17.5q37 12 80 24q311 47 461 48q319 0 526 -146q135 -94 135 -309q0 -47 -8 -94q18 -10 18 -21 l-49 -80l8 -12q-2 0 -32 -76q-12 -9 -25 -24q-78 -129 -420 -303q-80 -41 -243 -86q-184 -53 -277 -54q-45 0 -186 47q-301 102 -398 246q-84 125 -84 303zM150 555l10 -8q-2 -10 -2 -33q0 -174 180 -283q158 -94 369 -94q212 0 528 166q354 186 354 379q0 3 6.5 24.5 t6.5 24.5q0 65 -62 148q-35 47 -168 102q-131 55 -211 55q-10 0 -28 -2q-12 -2 -24 -3l-5 -1l-103 21q-2 0 -28 -11l-29 -10q0 -2 -78 -6l-75 -4q-10 0 -21 4q-18 6 -20 6l-60 -29l-151 -36q-106 -27 -162 -72q2 -12 6 -31q0 -16 -66 -59q-59 -27 -112 -107 q-55 -82 -55 -141zM561 1266q0 10 4 26q0 6 1 13.5t2 11.5l1 4q59 29 238 100q29 20 41 27q197 92 233 92q16 0 39 -12t23 -27q0 -45 -201 -160l-72 -26q-190 -117 -233 -117q-76 0 -76 68z" />
<glyph unicode="&#xd4;" horiz-adv-x="1554" d="M18 565l1 4q1 4 4.5 12.5t5.5 18.5t5 18.5t5 13.5l2 5q2 14 4 45t4 43q33 47 62 94q29 49 161 185q6 6 45 18q4 4 12.5 9t22.5 16q2 0 9.5 3l20.5 8t31.5 11t44 15.5t54.5 17.5q37 12 80 24q311 47 461 48q319 0 526 -146q135 -94 135 -309q0 -47 -8 -94q18 -10 18 -21 l-49 -80l8 -12q-2 0 -32 -76q-12 -9 -25 -24q-78 -129 -420 -303q-80 -41 -243 -86q-184 -53 -277 -54q-45 0 -186 47q-301 102 -398 246q-84 125 -84 303zM150 555l10 -8q-2 -10 -2 -33q0 -174 180 -283q158 -94 369 -94q212 0 528 166q354 186 354 379q0 3 6.5 24.5 t6.5 24.5q0 65 -62 148q-35 47 -168 102q-131 55 -211 55q-10 0 -28 -2q-12 -2 -24 -3l-5 -1l-103 21q-2 0 -28 -11l-29 -10q0 -2 -78 -6l-75 -4q-10 0 -21 4q-18 6 -20 6l-60 -29l-151 -36q-106 -27 -162 -72q2 -12 6 -31q0 -16 -66 -59q-59 -27 -112 -107 q-55 -82 -55 -141zM596 1329q0 18 41 49q35 20 49 33q8 4 98 115q66 78 109 78q6 -2 63 -50l74 -61q2 -4 5 -12l5 -13q76 -59 129 -120q35 -41 35 -68q0 -15 -6 -37q-2 -6 -37 -6q-49 0 -86 12q-160 162 -178 162l-111 -94q-111 -98 -127 -98q-49 0 -57 30l2 -2q2 6 2 53 q-10 27 -10 29z" />
<glyph unicode="&#xd5;" horiz-adv-x="1554" d="M18 565l1 4q1 4 4.5 12.5t5.5 18.5t5 18.5t5 13.5l2 5q2 14 4 45t4 43q33 47 62 94q29 49 161 185q6 6 45 18q4 4 12.5 9t22.5 16q2 0 9.5 3l20.5 8t31.5 11t44 15.5t54.5 17.5q37 12 80 24q311 47 461 48q319 0 526 -146q135 -94 135 -309q0 -47 -8 -94q18 -10 18 -21 l-49 -80l8 -12q-2 0 -32 -76q-12 -9 -25 -24q-78 -129 -420 -303q-80 -41 -243 -86q-184 -53 -277 -54q-45 0 -186 47q-301 102 -398 246q-84 125 -84 303zM150 555l10 -8q-2 -10 -2 -33q0 -174 180 -283q158 -94 369 -94q212 0 528 166q354 186 354 379q0 3 6.5 24.5 t6.5 24.5q0 65 -62 148q-35 47 -168 102q-131 55 -211 55q-10 0 -28 -2q-12 -2 -24 -3l-5 -1l-103 21q-2 0 -28 -11l-29 -10q0 -2 -78 -6l-75 -4q-10 0 -21 4q-18 6 -20 6l-60 -29l-151 -36q-106 -27 -162 -72q2 -12 6 -31q0 -16 -66 -59q-59 -27 -112 -107 q-55 -82 -55 -141zM453 1346q2 4 14 16l14 14q39 53 181 160l6 1q6 1 12 1q41 29 74 29q90 0 174 -74q92 -84 127 -84q33 0 190 76q147 72 148 76v2q2 0 5 -1t9 -3.5t12 -4.5v-38q0 -16 -37 -39q0 -25 -2 -43q-219 -170 -331 -170q-37 0 -166 79q-113 70 -113 82h2 q-27 0 -133 -92l-107 -92h-2q-2 0 -5 1t-8 2t-11 1q-10 1 -21 3q-5 1 -6 1q-26 62 -26 97z" />
<glyph unicode="&#xd6;" horiz-adv-x="1554" d="M18 565l1 4q1 4 4.5 12.5t5.5 18.5t5 18.5t5 13.5l2 5q2 14 4 45t4 43q33 47 62 94q29 49 161 185q6 6 45 18q4 4 12.5 9t22.5 16q2 0 9.5 3l20.5 8t31.5 11t44 15.5t54.5 17.5q37 12 80 24q311 47 461 48q319 0 526 -146q135 -94 135 -309q0 -47 -8 -94q18 -10 18 -21 l-49 -80l8 -12q-2 0 -32 -76q-12 -9 -25 -24q-78 -129 -420 -303q-80 -41 -243 -86q-184 -53 -277 -54q-45 0 -186 47q-301 102 -398 246q-84 125 -84 303zM150 555l10 -8q-2 -10 -2 -33q0 -174 180 -283q158 -94 369 -94q212 0 528 166q354 186 354 379q0 3 6.5 24.5 t6.5 24.5q0 65 -62 148q-35 47 -168 102q-131 55 -211 55q-10 0 -28 -2q-12 -2 -24 -3l-5 -1l-103 21q-2 0 -28 -11l-29 -10q0 -2 -78 -6l-75 -4q-10 0 -21 4q-18 6 -20 6l-60 -29l-151 -36q-106 -27 -162 -72q2 -12 6 -31q0 -16 -66 -59q-59 -27 -112 -107 q-55 -82 -55 -141zM524 1341q0 63 49 103q55 -20 86 -33q72 -29 72 -67.5t-30.5 -69.5t-71.5 -31t-72 31q-33 32 -33 67zM952 1341q0 51 11 78h63q94 0 94 -116q0 -72 -65 -72q-103 -1 -103 110z" />
<glyph unicode="&#xd8;" horiz-adv-x="1540" d="M35 637q0 330 397 561q51 10 90 21q129 57 238 57l5 -1q5 -1 14 -2t21.5 -1t21.5 -1t15 -2l5 -1q70 14 80 14q4 0 34 -6q6 -2 11.5 -3t9.5 -2t7 -2t5 -1h2q88 0 125 -4l6 -3q6 -3 20.5 -9.5l28.5 -12.5l56 -22q225 164 254 163q86 0 86 -110q0 -41 -41 -82q-8 -8 -84 -70 q-51 -39 -51 -53l2 4q6 0 55 -125q55 -147 55 -248q0 -104 -80 -288q-34 -49 -147 -129l-139 -56l-160 -63q-83 -31 -166 -31q-164 0 -250 18q-129 28 -129 31h4q-86 0 -190 -158q-29 -43 -72 -43q-28 0 -61 37q-31 33 -31 68q0 41 113 215q0 6 -56 72q-61 74 -82 108 q-22 41 -22 160zM223 612q0 -10 41 -75q49 -76 82 -76q6 0 301 252l207 174q190 158 190 176q0 8 -20 27h-86q-84 0 -207 -37q-12 4 -18 4t-23 -4q-80 -27 -233 -97q-106 -68 -168 -161q-66 -101 -66 -183zM606 373q80 -27 144 -27q141 0 303 70q133 57 174 110 q80 98 80 244q0 137 -70 168l-492 -412q-139 -113 -139 -127v-26z" />
<glyph unicode="&#xd9;" horiz-adv-x="1492" d="M27 670l10 10q-2 37 -6 61q16 82 65 191q76 172 154 172l57 -45q-14 -20 -16 -58q-49 -29 -70 -81l-31 -86q-33 -70 -32 -134q0 -176 20 -249q10 -37 58 -119q31 -53 81 -92q70 -53 89 -62q28 -12 86 -12h90q27 0 186 55q150 51 172 66l139 92l211 178q27 45 101 154 q29 43 69 133q33 78 33 90v153v72l-1 -3q-1 -3 -1 -9v-12q2 39 43 39l7 -4l23.5 -10t34.5 -13q0 -16 9 -55l8 -45q0 -6 -8 -21l-6 -18q0 -70 2 -72q4 0 4 2q-16 -70 -60 -162q-55 -127 -65 -160l-9.5 -10l-13.5 -14q-6 -39 -20 -62l-131 -155q-33 -27 -117 -88q0 -2 -2 -6.5 t-4 -11.5t-4 -13l-138 -84q-82 -53 -157 -76q-4 -8 -35 -30q-94 -41 -162 -41q-23 0 -53 -2l-55 -5q-106 0 -246 58q-158 66 -193 137q-82 166 -98 256q-18 121 -18 201zM494 1452q0 68 36 68q18 0 99 -35l231 -105q20 -8 50 -23.5t76 -37l83 -39.5q29 -35 29 -53 q0 -31 -29 -76q-231 59 -565 235q-10 7 -10 66z" />
<glyph unicode="&#xda;" horiz-adv-x="1492" d="M27 670l10 10q-2 37 -6 61q16 82 65 191q76 172 154 172l57 -45q-14 -20 -16 -58q-49 -29 -70 -81l-31 -86q-33 -70 -32 -134q0 -176 20 -249q10 -37 58 -119q31 -53 81 -92q70 -53 89 -62q28 -12 86 -12h90q27 0 186 55q150 51 172 66l139 92l211 178q27 45 101 154 q29 43 69 133q33 78 33 90v153v72l-1 -3q-1 -3 -1 -9v-12q2 39 43 39l7 -4l23.5 -10t34.5 -13q0 -16 9 -55l8 -45q0 -6 -8 -21l-6 -18q0 -70 2 -72q4 0 4 2q-16 -70 -60 -162q-55 -127 -65 -160l-9.5 -10l-13.5 -14q-6 -39 -20 -62l-131 -155q-33 -27 -117 -88q0 -2 -2 -6.5 t-4 -11.5t-4 -13l-138 -84q-82 -53 -157 -76q-4 -8 -35 -30q-94 -41 -162 -41q-23 0 -53 -2l-55 -5q-106 0 -246 58q-158 66 -193 137q-82 166 -98 256q-18 121 -18 201zM586 1235v2q0 2 1 5t2 8t1 11.5t1 13.5t2 11l1 4q86 39 235 101q18 14 41 24q195 94 234 94 q18 0 39 -14q23 -12 22 -25q0 -45 -200 -159q-4 -2 -29 -11.5t-43 -17.5q-193 -115 -234 -115q-73 0 -73 68z" />
<glyph unicode="&#xdb;" horiz-adv-x="1492" d="M27 670l10 10q-2 37 -6 61q16 82 65 191q76 172 154 172l57 -45q-14 -20 -16 -58q-49 -29 -70 -81l-31 -86q-33 -70 -32 -134q0 -176 20 -249q10 -37 58 -119q31 -53 81 -92q70 -53 89 -62q28 -12 86 -12h90q27 0 186 55q150 51 172 66l139 92l211 178q27 45 101 154 q29 43 69 133q33 78 33 90v153v72l-1 -3q-1 -3 -1 -9v-12q2 39 43 39l7 -4l23.5 -10t34.5 -13q0 -16 9 -55l8 -45q0 -6 -8 -21l-6 -18q0 -70 2 -72q4 0 4 2q-16 -70 -60 -162q-55 -127 -65 -160l-9.5 -10l-13.5 -14q-6 -39 -20 -62l-131 -155q-33 -27 -117 -88q0 -2 -2 -6.5 t-4 -11.5t-4 -13l-138 -84q-82 -53 -157 -76q-4 -8 -35 -30q-94 -41 -162 -41q-23 0 -53 -2l-55 -5q-106 0 -246 58q-158 66 -193 137q-82 166 -98 256q-18 121 -18 201zM451 1294q0 16 55 41l67 27q9 6 129 92q86 61 150 62q14 -4 84 -39l100 -52q3 -6 13 -18 q102 -47 172 -96q49 -33 49 -58q0 -12 -8 -26q-6 -6 -50 -6q-74 0 -116 8q-217 133 -242 133l-149 -78q-150 -78 -170 -78q-61 0 -74 23q4 4 4 45q-4 6 -10 13q-4 5 -4 7z" />
<glyph unicode="&#xdc;" horiz-adv-x="1492" d="M27 670l8 10q0 10 -1 24.5t-2 22.5t-1 14q16 82 65 191q76 172 154 172l57 -45q-14 -20 -16 -58q-49 -29 -70 -81l-33 -86q-31 -63 -30 -134q0 -176 20 -249q10 -37 58 -119q31 -53 81 -92q70 -53 89 -62q28 -12 86 -12h90q27 0 186 55q150 51 172 66l139 92l211 178 q27 45 101 154q29 43 69 133q33 78 33 90v153v72l-1 -3q-1 -3 -1 -9v-12q2 39 43 39l7 -4l23.5 -10t34.5 -13q0 -16 9 -55l8 -45q0 -6 -8 -21l-6 -18q0 -70 2 -72q4 0 4 2q-16 -70 -60 -162q-55 -127 -65 -160l-9.5 -10l-13.5 -14q-6 -39 -20 -62l-131 -155 q-33 -27 -117 -88q0 -2 -2 -6.5t-4 -11.5t-4 -13l-138 -84q-82 -53 -157 -76q-4 -8 -35 -30q-94 -41 -162 -41q-23 0 -53 -2l-55 -5q-106 0 -246 58q-158 66 -193 137q-82 156 -98 256q-18 121 -18 201zM524 1329q0 63 49 103q80 -29 84 -31q72 -31 72 -70q0 -37 -31 -67 q-29 -29 -69.5 -29t-73.5 29q-31 30 -31 65zM950 1329q0 53 11 80h65q92 0 92 -119q0 -72 -65 -71q-103 -1 -103 110z" />
<glyph unicode="&#xdd;" horiz-adv-x="1079" d="M1247 1718q0 12 4 31q0 6 1 13t2 11l1 4l250 105q18 16 43 26q206 98 246 99q16 0 39 -15q25 -16 24 -26q0 -47 -211 -168q-70 -27 -76 -29q-200 -123 -245 -123q-78 0 -78 72zM59 1214q0 74 31 148h80q3 -6 55 -43l29 -215q59 -201 215 -201q129 0 393 197l365 266 q45 31 75.5 31t63.5 -39q31 -35 31 -51q0 -39 -41 -88q-14 -18 -144 -148q-135 -135 -198 -207q-2 -2 -144 -159l-172 -185q-41 -59 -168 -260q-9 -15 -36 -80l-29 -86q-31 -78 -66 -78q-33 16 -104 58q0 4 -1 8t-1 8q0 25 6 60q119 256 184 356q10 16 52 41q3 12 6 31 q18 31 114 139q0 10 13 28q-12 14 -52 15q-6 0 -102 -21q-94 -20 -102 -20q-72 0 -142 45q-71 46 -104 110q-66 137 -92 242q-15 57 -15 98z" />
<glyph unicode="&#xdf;" horiz-adv-x="1191" d="M29 72q8 18 28 90q0 20 39 180l39 150q10 162 55 360q37 150 70 246q4 4 33 41q35 72 82 159q4 4 41 45q25 63 102 140q33 29 121 84q92 55 109 55q39 0 92 -29h8q8 0 33 -4q104 -43 211 -119q2 -2 8 -18l12 -31q39 -88 39 -139q0 -53 -59 -137q-23 -29 -183 -176 q-129 -117 -141 -203q174 -113 242 -170q117 -104 116 -188q0 -10 -71 -95q-18 -33 -94 -127q-23 -23 -107 -84q-80 -59 -82 -84q-84 -72 -113 -71q-27 0 -108 65v47q0 45 47 127q61 55 68 60q2 0 22 4q92 78 162 160q4 16 33 65l-47 45q-8 8 -105 55q-55 27 -123 82 q-20 35 -76 84v97q20 18 33 41q0 29 21 77q37 53 223 211q129 109 129 199q0 70 -104 70q-31 0 -107 -54q-12 -10 -82 -59l-24.5 -28.5l-30 -37l-47.5 -59.5q-2 -6 -5 -13t-8.5 -18.5t-9.5 -21.5q-4 -4 -11 -12.5t-15 -16.5q0 -31 -23 -98q-59 -117 -76 -197 q-18 -94 -45 -301q-10 -10 -26 -37q-2 -35 -23 -149l-16 -47q-12 -98 -49 -273q-4 -10 -48 -71q-31 -6 -30.5 -8.5t2.5 -2.5q-41 0 -115 80q0 6 -8 31t-8 29z" />
<glyph unicode="&#xe0;" horiz-adv-x="983" d="M47 207q0 53 39 160q10 27 55 47l60 26q205 125 374 125q47 0 127 -28q23 -10 56 -66q35 -59 35 -84q0 -51 -56 -84q-123 68 -182 68q-70 0 -145 -35q-94 -43 -152 -96q6 -29 68 -29h-4q0 4 127 45q154 47 223 47q23 0 141 -100q133 -113 188 -140q23 -18 23 -28 q0 -37 -20 -64q-23 -29 -48 -28q-47 12 -213 100l-55.5 28.5t-40.5 21.5t-14 7q-37 0 -113 -32l-110 -48q-61 -20 -127 -20q-84 0 -197 104q-39 58 -39 103zM197 850q0 68 39 68q23 0 96 -33l233 -107l209 -98q27 -35 27 -55q0 -27 -27 -74q-248 63 -567 235q-10 7 -10 64z " />
<glyph unicode="&#xe1;" horiz-adv-x="983" d="M47 207q0 53 39 160q10 27 55 47l60 26q205 125 374 125q47 0 127 -28q23 -10 56 -66q35 -59 35 -84q0 -51 -56 -84q-123 68 -182 68q-70 0 -145 -35q-94 -43 -152 -96q6 -29 68 -29h-4q0 4 127 45q154 47 223 47q23 0 141 -100q133 -113 188 -140q23 -18 23 -28 q0 -37 -20 -64q-23 -29 -48 -28q-47 12 -213 100l-55.5 28.5t-40.5 21.5t-14 7q-37 0 -113 -32l-110 -48q-61 -20 -127 -20q-84 0 -197 104q-39 58 -39 103zM174 610l1 4q1 4 2 11.5t1 13.5q4 16 4 29l238 100q25 18 41 25q201 94 233 94q14 0 39 -15q23 -12 23 -24 q0 -45 -201 -160l-28.5 -12t-43.5 -17q-186 -115 -233 -114q-76 -1 -76 65z" />
<glyph unicode="&#xe2;" horiz-adv-x="983" d="M47 207q0 53 39 160q10 27 55 47l60 26q205 125 374 125q47 0 127 -28q23 -10 56 -66q35 -59 35 -84q0 -51 -56 -84q-123 68 -182 68q-70 0 -145 -35q-94 -43 -152 -96q6 -29 68 -29h-4q0 4 127 45q154 47 223 47q23 0 141 -100q133 -113 188 -140q23 -18 23 -28 q0 -37 -20 -64q-23 -29 -48 -28q-47 12 -213 100l-55.5 28.5t-40.5 21.5t-14 7q-37 0 -113 -32l-110 -48q-61 -20 -127 -20q-84 0 -197 104q-39 58 -39 103zM100 709q59 14 172 104l170 139h7q31 0 102 -32q72 -37 98 -66q68 -43 154 -106q98 -74 98 -144q0 -51 -63 -51 q-12 0 -31 4q-29 6 -33 6q-8 0 -139 99q-135 100 -139 100q-31 0 -54 -23q-8 -14 -24 -34q-68 -55 -135 -101q-18 -12 -84 -12q-51 0 -74 41z" />
<glyph unicode="&#xe3;" horiz-adv-x="983" d="M45 713q2 4 14 16l17 14q39 53 180 160l5 1q5 1 11 1q41 29 74 29q89 0 172 -74q96 -86 127 -86q33 0 195 78q145 70 145 76v2l29 -8v-39q0 -14 -37 -39q0 -6 -4 -43q-219 -170 -332 -170q-39 0 -164 80q-115 72 -115 82h3q-25 0 -134 -93l-106 -92h-2q-2 0 -5 1t-8.5 2 t-11.5 1l-26 4q-27 62 -27 97zM47 207q0 53 39 160q10 27 55 47l60 26q205 125 374 125q47 0 127 -28q23 -10 56 -66q35 -59 35 -84q0 -51 -56 -84q-123 68 -182 68q-70 0 -145 -35q-88 -41 -150 -96q6 -29 68 -29h-6q0 6 129 45q154 47 221 47q23 0 141 -100 q133 -113 188 -140q23 -18 23 -28q0 -37 -20 -64q-23 -29 -48 -28q-47 12 -213 100l-55.5 28.5t-40.5 21.5t-14 7q-37 0 -113 -32l-110 -48q-61 -20 -127 -20q-84 0 -197 104q-39 58 -39 103z" />
<glyph unicode="&#xe4;" horiz-adv-x="983" d="M47 207q0 61 39 160q10 27 55 47l60 26q205 125 374 125q47 0 127 -28q23 -10 56 -66q35 -59 35 -84q0 -51 -56 -84q-123 68 -182 68q-70 0 -145 -35q-94 -43 -150 -96q6 -29 68 -29h-6q0 4 127 45q154 47 223 47q23 0 141 -100q133 -113 188 -140q23 -18 23 -28 q0 -37 -20 -64q-23 -29 -48 -28q-47 12 -213 100l-55.5 28.5t-40.5 21.5t-14 7q-37 0 -113 -32l-110 -48q-61 -20 -127 -20q-84 0 -197 104q-39 58 -39 103zM211 717q0 61 49 102l84 -33q74 -29 74 -67q0 -37 -33 -70q-31 -31 -70 -31q-41 0 -71 31q-33 33 -33 68zM639 717 q0 57 8 80h66q94 0 94 -119q0 -74 -68 -74q-100 0 -100 113z" />
<glyph unicode="&#xe5;" horiz-adv-x="983" d="M47 207q0 53 39 160q10 27 55 47l60 26q205 125 374 125q47 0 127 -28q23 -10 56 -66q35 -59 35 -84q0 -51 -56 -84q-123 68 -182 68q-70 0 -145 -35q-94 -43 -152 -96q6 -29 68 -29h-4q0 4 127 45q154 47 223 47q23 0 141 -100q133 -113 188 -140q23 -18 23 -28 q0 -37 -20 -64q-23 -29 -48 -28q-47 12 -213 100l-55.5 28.5t-40.5 21.5t-14 7q-37 0 -113 -32l-110 -48q-61 -20 -127 -20q-84 0 -197 104q-39 58 -39 103zM215 688q12 74 12 105q0 4 -1 8t-1 6v2q0 37 94 98q59 39 181 39q37 0 114 -22q41 -12 103 -56q37 -101 37 -116 q0 -39 -15 -80q-10 -31 -59 -72l-88 -37q-72 -27 -141.5 -26.5t-145.5 38.5q-90 50 -90 113zM348 707q4 -4 18.5 -11.5t24.5 -13.5q10 -8 53 -8q49 0 99 14q82 25 82 68q0 41 -160 59q-8 0 -22.5 -1t-18.5 -1q-4 -4 -23 -12q-53 -49 -53 -74v-20z" />
<glyph unicode="&#xe6;" horiz-adv-x="1050" d="M37 528q0 20 4 41q12 18 39 39q100 39 123 39q2 0 6 -2t11 -4t13 -4h11q158 0 276 -59q12 18 96 61t109 43l25 -12q27 -10 30 -11l3 1l7.5 2.5t10.5 1.5t10 1t7 2l3 1q25 0 60 -29l33.5 -28.5l35.5 -30.5q35 -70 35 -121q0 -66 -35 -115q-10 -12 -127 -96q12 -12 97 -25 q90 -12 92 -14q4 -16 4 -41q0 -8 -1 -21.5t-1 -17.5q-14 -23 -41 -43q-82 -35 -121 -35h2q0 2 -33 8q-8 -2 -80 -2q-106 0 -211 62q-10 -16 -94 -60q-86 -45 -106 -45l-27 11q-4 2 -9 4t-8 3t-6.5 2t-5.5 2l-2 1l-16 -4q-12 -2 -23 -2q-35 0 -63 28q-59 53 -66 56 q-35 80 -34 127q0 63 34 110q6 12 125 97q-12 14 -90 22q-80 8 -98 16q-4 16 -4 41zM246 217q0 -12 18 -29h49q27 0 66 39q39 35 43 58h-35q-20 0 -76 -19q-65 -24 -65 -49zM631 412h35q20 0 75 20q66 23 66 47q0 12 -16 29h-50q-20 0 -65 -39q-43 -37 -45 -57z" />
<glyph unicode="&#xe7;" horiz-adv-x="972" d="M41 229q0 74 29 123q45 78 159 168q49 39 142 78q174 74 241 74l5 -1q5 -1 14.5 -2t20 -1t20.5 -1t15 -2l5 -1q88 0 117 -23q31 -22 31 -86q-4 0 -31 -57q-14 -12 -51 -13q-4 0 -27 7q-14 2 -26 2q-119 0 -373 -142q-63 -33 -88 -123q114 -80 239 -79q39 4 121 8l121 8 q3 0 92 12q92 12 94 12q41 0 60 -16q2 -10 2 -29q0 -86 -96 -86q-2 0 -15 7q-8 2 -14 2t-57 -23q-16 -6 -32 -13t-24 -11.5t-10 -4.5q-162 -35 -227 -34q-2 0 -6.5 1t-11.5 2t-13 1q-4 0 -10 1t-8.5 1t-9.5 -1t-11 -1q-25 -12 -47 -13q-100 0 -195 58q-100 61 -123 137z M160 -453q0 78 96 103q51 0 156 6q49 12 69 16q92 12 135 43q-55 33 -77 33q-4 0 -10.5 -1t-17.5 -2t-22 -1l-49 -4q-49 0 -80 35q-8 23 -22 45q4 2 8 30q2 37 8 48l25 51q6 31 33 84q4 2 63 14q45 -43 51 -115q-4 -8 -4 -36h8q23 0 37 -2q104 -35 138 -52q72 -39 77 -98 q16 -23 16.5 -29t-40.5 -77q-31 -59 -105 -82q-12 -4 -127 -25q-121 -25 -120 -29q-8 1 -19 3q-5 1 -6 1q-162 -23 -162 -22q-23 0 -41 20q-18 21 -18 43z" />
<glyph unicode="&#xe8;" horiz-adv-x="915" d="M20 311q0 78 21 117q143 279 573 279q139 0 211 -66q49 -43 109 -123q6 -23 6 -59.5t-2 -57.5q-6 -94 -41 -110q-41 0 -221 -23l-172 -22h2l-90 -23q-14 10 -54 10q-4 -4 -8 -9l-4 -5q0 -29 201 -84q80 -4 125 -10q117 -14 117 -59q0 -12 -72 -50q-14 -14 -39 -36 q-68 -8 -68 -9q-4 0 -96 6l-98 9q-37 0 -105 32l-82 41q-78 31 -147 109q-66 73 -66 143zM172 1016q0 68 37 67q23 0 96 -32l236 -107l207 -98q27 -35 26 -55q0 -31 -24 -74q-244 61 -568 233q-10 7 -10 66zM303 428q0 -16 10 -16h301q106 0 125 30q-6 16 -12 41t-8 31 q-4 12 -53 35q-108 -9 -234 -31q-33 -6 -80 -39q-49 -33 -49 -51z" />
<glyph unicode="&#xe9;" horiz-adv-x="915" d="M20 311q0 78 21 117q143 279 573 279q139 0 211 -66q49 -43 109 -123q6 -23 6 -59.5t-2 -57.5q-6 -94 -41 -110q-41 0 -221 -23l-172 -22h2l-90 -23q-14 10 -54 10q-4 -4 -8 -9l-4 -5q0 -29 201 -84q80 -4 125 -10q117 -14 117 -59q0 -12 -72 -50q-14 -14 -39 -36 q-68 -8 -68 -9q-4 0 -96 6l-98 9q-37 0 -105 32l-82 41q-78 31 -147 109q-66 73 -66 143zM186 805v2q0 2 1 5t2 8t1 11.5t1.5 13.5t2.5 11l1 4q86 39 235 101q25 18 41 24q201 94 236 94q18 0 38 -14q23 -12 23 -25q0 -45 -203 -159l-69 -27q-190 -117 -236 -117 q-74 0 -74 68zM303 428q0 -16 10 -16h301q106 0 125 30q-6 16 -12 41t-8 31q-4 12 -53 35q-108 -9 -234 -31q-33 -6 -80 -39q-49 -33 -49 -51z" />
<glyph unicode="&#xea;" horiz-adv-x="915" d="M20 311q0 78 21 117q143 279 573 279q139 0 211 -66q49 -43 109 -123q6 -23 6 -59.5t-2 -57.5q-6 -94 -41 -110q-41 0 -221 -23l-172 -22h2l-90 -23q-14 10 -54 10q-4 -4 -8 -9l-4 -5q0 -29 201 -84q80 -4 125 -10q117 -14 117 -59q0 -12 -72 -50q-14 -14 -39 -36 q-68 -8 -68 -9q-4 0 -96 6l-98 9q-37 0 -105 32l-82 41q-78 31 -147 109q-66 73 -66 143zM86 891q63 14 174 104l168 140h6q27 0 103 -33q72 -37 98 -66q49 -31 153 -108q100 -76 101 -142q0 -53 -66 -53q-3 0 -30.5 6t-30.5 6q-10 0 -139 99q-132 98 -142 98q-33 0 -53 -20 q-8 -16 -27 -35q-123 -92 -133 -101q-18 -12 -84 -12q-51 0 -73 41q-4 14 -11.5 35t-13.5 41zM303 428q0 -16 10 -16h301q106 0 125 30q-6 16 -12 41t-8 31q-4 12 -53 35q-108 -9 -234 -31q-33 -6 -80 -39q-49 -33 -49 -51z" />
<glyph unicode="&#xeb;" horiz-adv-x="915" d="M18 311q0 76 23 117q143 279 573 279q139 0 211 -66q49 -43 109 -123q6 -23 6 -59.5t-2 -57.5q-6 -94 -41 -110q-41 0 -221 -23l-172 -22h2l-90 -23q-14 10 -54 10l-14 -14q0 -29 203 -84q80 -4 125 -10q117 -14 117 -59q0 -12 -72 -50q-14 -14 -39 -36q-68 -8 -68 -9 q-4 0 -96 6l-98 9q-37 0 -105 32l-82 41q-78 31 -147 109q-68 77 -68 143zM203 860q0 61 49 103l84 -33q72 -29 72 -68t-31 -69q-29 -29 -72 -29q-41 0 -69 29q-33 30 -33 67zM303 428q0 -16 10 -16h301q106 0 125 30q-6 16 -12 41t-8 31q-4 12 -53 35q-108 -9 -234 -31 q-33 -6 -80 -39q-49 -33 -49 -51zM631 860q0 55 8 78h66q94 0 94 -117q0 -72 -68 -71q-100 -1 -100 110z" />
<glyph unicode="&#xec;" horiz-adv-x="620" d="M35 860q0 68 37 68q18 0 98 -35l231 -105q33 -14 209 -100q27 -35 27 -55q0 -27 -27 -74q-236 61 -567 236q-8 6 -8 65zM215 176q0 43 8 111q14 137 37 237q29 33 66 33q39 0 59 -61q14 -39 21 -373v-2q0 -20 -21 -103l-27 -6h-4q-14 0 -82 23q0 2 1 4t1 4q0 16 -22 51 q-33 51 -35 64q-2 4 -2 18z" />
<glyph unicode="&#xed;" horiz-adv-x="602" d="M41 637q0 10 4 26.5t4 28.5l238 99q29 20 39 24q195 94 233 94q18 0 39 -12q23 -12 23 -27q0 -45 -201 -159q-6 -2 -16.5 -6.5t-27 -10.5l-28.5 -10q-190 -117 -231 -117q-76 0 -76 70zM225 176q0 43 8 111q14 137 37 237q29 33 68 33q35 0 57 -61q14 -39 21 -373v-2 q0 -12 -23 -103l-24 -6h-4q-12 0 -80 23v8q0 16 -23 51q-27 41 -35 64q0 2 -1 7t-1 11z" />
<glyph unicode="&#xee;" horiz-adv-x="815" d="M29 692q61 15 172 105l170 141h6q31 0 100 -35q80 -39 101 -63q35 -23 151 -109q100 -76 100 -143q0 -51 -63 -51q-4 0 -33 6q-18 4 -28 4q-9 0 -142 98q-135 100 -139 100q-31 0 -53 -22q-4 -8 -27 -35q-61 -49 -133 -98q-18 -12 -84 -12q-53 0 -74 38q-16 41 -24 76z M297 176q0 59 6 111q12 119 39 237q27 33 65.5 33t59.5 -61q12 -35 18 -373v-2q0 -20 -20 -103l-25 -6h-4q-14 0 -82 23v8q0 18 -20 51q-33 51 -35 64q-2 4 -2 18z" />
<glyph unicode="&#xef;" horiz-adv-x="608" d="M33 711q0 63 49 102q10 -4 32.5 -11t51.5 -20q72 -29 72 -67.5t-31 -69.5t-72 -31t-71.5 31t-30.5 66zM201 172q0 41 8 109q14 121 39 237q27 33 63 33q39 0 60 -64q14 -41 20 -370v-2q0 -20 -20 -103l-27 -6h-2q-14 0 -82 23v6q0 23 -20 51q-35 57 -37 64q-2 4 -2 22z M459 711q0 53 10 80h66q92 0 92 -119q0 -72 -68 -72q-100 0 -100 111z" />
<glyph unicode="&#xf1;" horiz-adv-x="976" d="M53 379q0 23 41 108q0 23 8 56q8 25 52 104l26 6q25 6 31 6q2 -14 43 -45q43 -33 51 -32q2 0 176 77q170 76 174 76q98 0 209 -141q31 -39 74 -113q53 -127 53 -344q0 -137 -65 -137q-12 0 -43 16q-39 20 -62 25q-53 80 -53 170q0 98 -63 291q-12 12 -46 12 q-31 0 -81 -29l-29 -14l-53 -29q-45 -33 -144 -149q-119 -139 -145 -139q-68 0 -115 86q-39 69 -39 139zM63 883q4 8 15 18l14 12q35 51 180 160q8 4 19 4q39 27 74 27q89 0 172 -74q96 -84 129 -84q29 0 190 78q150 68 150 76h-2q2 0 5 -1t9 -2t12 -3v-41q0 -18 -35 -39 q0 -4 -4 -41q-221 -172 -332 -172q-31 0 -163 82q-115 74 -115 80h2q-27 0 -133 -93l-107 -92h-2q-2 0 -5 1t-8 2t-11 1q-10 1 -22 4q-5 1 -5 0q-27 62 -27 97z" />
<glyph unicode="&#xf2;" horiz-adv-x="1091" d="M37 344q0 16 22.5 90t36.5 94q20 33 88 66l95 43q104 59 231 111l72 4q6 2 15 7t21 11q6 0 61.5 6t59.5 6q285 0 367 -239q41 -119 41 -133q0 -119 -57 -185q-59 -68 -220 -149q-114 -58 -258 -92q-18 -4 -39.5 -9.5l-44.5 -11.5q-119 0 -268 80q-166 90 -190 205 q-2 6 -17 47q-16 41 -16 49zM242 328q0 -57 100 -113q86 -47 147 -47q96 0 269 84q195 98 194 197q0 141 -178 141q-131 0 -299 -55q-8 -6 -17 -13.5t-20 -15.5q-41 -4 -69 -21q-127 -122 -127 -157zM285 1102q0 66 39 65q23 0 96 -32l231 -107q71 -31 209 -98 q29 -39 29 -56q0 -27 -27 -73q-244 61 -567 233q-10 7 -10 68z" />
<glyph unicode="&#xf3;" horiz-adv-x="1091" d="M37 344q0 16 22.5 90t36.5 94q20 33 88 66l95 43q104 59 231 111l72 4q6 2 15 7t21 11q6 0 61.5 6t59.5 6q285 0 367 -239q41 -119 41 -133q0 -119 -57 -185q-59 -68 -220 -149q-114 -58 -258 -92q-18 -4 -39.5 -9.5l-44.5 -11.5q-119 0 -268 80q-166 90 -190 205 q-2 6 -17 47q-16 41 -16 49zM242 328q0 -57 100 -113q86 -47 147 -47q96 0 269 84q195 98 194 197q0 141 -178 141q-131 0 -299 -55q-8 -6 -17 -13.5t-20 -15.5q-41 -4 -69 -21q-127 -122 -127 -157zM272 821l1 4q1 4 2 11.5t1 13.5t1.5 13t2.5 11l1 5l237 98q33 25 39 27 q197 92 236 92q18 0 38 -13q23 -12 23 -26q0 -45 -203 -160l-69 -27q-190 -117 -234 -116q-76 -1 -76 67z" />
<glyph unicode="&#xf4;" horiz-adv-x="1091" d="M37 344q0 16 22.5 90t36.5 94q20 33 88 66l95 43q104 59 231 111l72 4q6 2 15 7t21 11q6 0 61.5 6t59.5 6q285 0 367 -239q41 -119 41 -133q0 -119 -57 -185q-59 -68 -220 -149q-114 -58 -258 -92q-18 -4 -39.5 -9.5l-44.5 -11.5q-119 0 -268 80q-166 90 -190 205 q-2 6 -17 47q-16 41 -16 49zM231 956q68 16 175 105l169 139h5q35 0 102 -33q76 -37 98 -63q49 -31 154 -109q100 -76 100 -143q0 -51 -65 -51q-12 0 -31 4q-28 6 -31 6q-10 0 -139 98q-135 100 -141 101q-29 0 -52 -23q-8 -16 -26 -35l-135 -98q-18 -12 -82 -12 q-53 0 -76 41zM242 328q0 -57 100 -113q86 -47 147 -47q96 0 269 84q195 98 194 197q0 141 -178 141q-131 0 -299 -55q-8 -6 -17 -13.5t-20 -15.5q-41 -4 -69 -21q-127 -122 -127 -157z" />
<glyph unicode="&#xf5;" horiz-adv-x="1091" d="M37 344q0 16 22.5 90t36.5 94q20 33 88 66l95 43q104 59 231 111l72 4q6 2 15 7t21 11q6 0 61.5 6t59.5 6q285 0 367 -239q41 -119 41 -133q0 -119 -57 -185q-59 -68 -220 -149q-114 -58 -258 -92q-18 -4 -39.5 -9.5l-44.5 -11.5q-119 0 -268 80q-166 90 -190 205 q-2 6 -17 47q-16 41 -16 49zM123 942q6 12 12 19l17 14q39 53 180 160q4 2 18 2q41 29 74 28q89 0 172 -73q95 -86 129 -86q29 0 190 77q150 72 150 76h-2q6 0 27 -6v-41q0 -16 -35 -39q0 -4 -4 -41q-221 -172 -332 -172q-39 0 -164 82q-115 74 -115 82h2q-25 0 -133 -92 l-108 -92h-2q-2 0 -5.5 1t-8.5 2t-11 1t-12 1t-9 2l-3 1q-27 61 -27 94zM242 328q0 -57 100 -113q86 -47 147 -47q96 0 269 84q195 98 194 197q0 141 -178 141q-131 0 -299 -55q-8 -6 -17 -13.5t-20 -15.5q-41 -4 -69 -21q-127 -122 -127 -157z" />
<glyph unicode="&#xf6;" horiz-adv-x="1091" d="M37 344q0 16 22.5 90t36.5 94q20 33 88 66l95 43q104 59 231 111l72 4q6 2 15 7t21 11q6 0 61.5 6t59.5 6q285 0 367 -239q41 -119 41 -133q0 -119 -57 -185q-59 -68 -220 -149q-114 -58 -258 -92q-18 -4 -39.5 -9.5l-44.5 -11.5q-119 0 -268 80q-166 90 -190 205 q-2 6 -17 47q-16 41 -16 49zM242 328q0 -57 100 -113q86 -47 147 -47q96 0 269 84q195 98 194 197q0 141 -178 141q-131 0 -299 -55q-8 -6 -17 -13.5t-20 -15.5q-41 -4 -69 -21q-127 -122 -127 -157zM322 950q0 61 49 103q80 -29 84 -31q74 -27 73 -70q0 -39 -30 -69 q-29 -29 -72 -29t-72 29q-32 32 -32 67zM750 950q0 49 10 80h63q94 0 95 -119q0 -72 -68 -71q-100 -1 -100 110z" />
<glyph unicode="&#xf7;" horiz-adv-x="1671" d="M53 496q0 86 88 86q2 0 19 -4q14 -4 14 -5q2 0 24.5 3.5l81 12.5l119.5 19l217 37l863 64h4q39 0 78 -45q37 -45 53 -113q-59 -25 -86 -57h-35q-57 0 -225 -11q-246 -16 -260 -16l-33 8q0 -2 -74 -14q-319 -25 -461 -51q-248 -43 -247 -48h2q-43 0 -92.5 49.5t-49.5 84.5 zM698 135v90q72 41 95 41q51 0 96 -41q43 -41 43 -94q0 -106 -98 -106q-49 0 -91 34q-45 39 -45 76zM725 909q0 33 2 52q16 14 49 14q43 0 174 -74q-35 -23 -59 -117q-2 0 -11.5 -1t-24.5 -1h-34q-96 0 -96 127z" />
<glyph unicode="&#xf8;" horiz-adv-x="1069" d="M25 455q0 29 81 125q111 129 187 165q61 29 139 29q8 0 43 -8q33 -8 41 -8q6 0 55 14q55 16 57.5 16t45.5 -6l23.5 -4l17.5 -3t8 -1q70 51 207 119q47 -76 47 -96l-33 -66q-6 -10 -11 -21.5t-8 -17.5t-6.5 -11t-4.5 -8l-1 -3l33 -64q34 -61 37 -80q4 -39 14 -77l15 -15 q14 -14 14 -22q-4 -8 -18 -23q4 -20 4 -35q0 -37 -8 -78q-47 -80 -140 -131q-8 -6 -157 -71q-59 -27 -152 -27l-16 4q-16 4 -19 4q-45 0 -114 -100q-47 -41 -115 -117v2q0 39 -78 49q-39 31 -39 60l31 61q27 59 26 66q0 33 -53 78q-72 61 -98 102q-55 80 -55 199zM270 387 q47 -29 60 -41q29 16 88 80q61 63 63 96q-59 -14 -104 -26q-14 -10 -50 -34t-57 -36v-39zM578 307h32q70 12 125 55q57 45 58 84q0 14 -43 46q-104 -62 -172 -185z" />
<glyph unicode="&#xf9;" horiz-adv-x="1214" d="M68 504q0 126 79 227h50q61 -43 61 -137l-1 -8q-1 -8 -2 -23.5t-1 -32.5q-2 -39 -2 -65q0 -164 176 -213q61 -15 61 -19h-2q14 0 35 3q8 0 16.5 1t12.5 2l4 1q96 0 258 106q102 68 195 189q96 127 108 200q4 16 35 43q33 29 47 29q49 0 49 -119q0 -61 -12 -96l-61 -158 q-14 -4 -23 -16q-6 -35 -47 -78l-68 -76q-4 -12 -8 -22q-102 -102 -262 -183q-156 -47 -236 -47q-37 0 -133 27q-329 100 -329 465zM350 1020q0 66 37 65q25 0 98 -32l234 -107l209 -98q27 -35 26 -55q0 -33 -26 -74q-244 61 -568 233q-10 7 -10 68z" />
<glyph unicode="&#xfa;" horiz-adv-x="1214" d="M68 504q0 126 79 227h50q61 -43 61 -137l-1 -8q-1 -8 -2 -23.5t-1 -32.5q-2 -39 -2 -65q0 -164 176 -213q61 -15 61 -19h-2q14 0 35 3q8 0 16.5 1t12.5 2l4 1q96 0 258 106q102 68 195 189q96 127 108 200q4 16 35 43q33 29 47 29q49 0 49 -119q0 -61 -12 -96l-61 -158 q-14 -4 -23 -16q-6 -35 -47 -78l-68 -76q-4 -12 -8 -22q-102 -102 -262 -183q-156 -47 -236 -47q-37 0 -133 27q-329 100 -329 465zM358 834l1 4q1 4 2 11t1 13t1.5 13.5t2.5 11.5l1 4l237 98q27 20 39 25q199 96 236 96q16 0 36 -14q23 -16 23 -27q0 -45 -201 -160 q-10 -4 -69 -26q-190 -117 -234 -117q-76 0 -76 68z" />
<glyph unicode="&#xfb;" horiz-adv-x="1214" d="M68 504q0 126 79 227h50q61 -43 61 -137l-1 -8q-1 -8 -2 -23.5t-1 -32.5q-2 -39 -2 -65q0 -164 176 -213q61 -15 61 -19h-2q14 0 35 3q8 0 16.5 1t12.5 2l4 1q96 0 258 106q102 68 195 189q96 127 108 200q4 16 35 43q33 29 47 29q49 0 49 -119q0 -61 -12 -96l-61 -158 q-14 -4 -23 -16q-6 -35 -47 -78l-68 -76q-4 -12 -8 -22q-102 -102 -262 -183q-156 -47 -236 -47q-37 0 -133 27q-329 100 -329 465zM242 969q59 14 172 104l170 141h4q29 0 102.5 -34.5t100.5 -63.5q35 -23 151 -108q100 -74 100 -144q0 -53 -63 -53q-4 0 -33 6q-28 6 -31 6 q-4 0 -139 101q-133 98 -139 98q-31 0 -53 -23q-8 -16 -27 -34l-133 -99q-18 -12 -84 -12q-53 0 -76 41q-4 12 -11 37t-11 37z" />
<glyph unicode="&#xfc;" horiz-adv-x="1214" d="M68 504q0 126 79 227h50q61 -43 61 -137l-1 -8q-1 -8 -2 -23.5t-1 -32.5q-2 -39 -2 -65q0 -164 176 -213q61 -15 61 -19h-2q14 0 35 3q8 0 16.5 1t12.5 2l4 1q96 0 258 106q102 68 195 189q96 127 108 200q4 16 35 43q33 29 47 29q49 0 49 -119q0 -61 -12 -96l-61 -158 q-14 -4 -23 -16q-6 -35 -47 -78l-68 -76q-4 -12 -8 -22q-102 -102 -262 -183q-156 -47 -236 -47q-37 0 -133 27q-329 100 -329 465zM362 954q0 61 50 103l84 -33q72 -29 71 -68q0 -37 -30 -67q-33 -33 -70 -33q-41 0 -74 33q-31 28 -31 65zM788 954q0 51 11 78h65 q92 0 92 -117q0 -72 -65 -71q-103 -1 -103 110z" />
<glyph unicode="&#xfd;" horiz-adv-x="1230" d="M68 1016q0 12 4 31q0 6 1 13t2 11l1 4l250 105q18 16 43 26q206 98 246 99q16 0 39 -15q25 -16 24 -26q0 -47 -211 -168q-70 -27 -76 -29q-200 -123 -245 -123q-78 0 -78 72zM43 469q0 104 12 135q39 76 66 76q86 0 110 -154q6 -34 19 -153q55 -96 151 -97q27 6 80 21 q98 25 107 27q117 23 223 90l186 118q4 6 47 58h101q49 -71 49 -135q0 -14 -45 -111q-35 -74 -74 -135q-22 -15 -49 -43q-10 -27 -84 -174l-4 -12v-5l-20 -32q-18 -12 -41 -41q-8 -18 -17 -80q-27 0 -39 -35l-49 -127q-16 -45 -70 -125q4 -25 5 -47q-25 -33 -41 -66 q0 -4 -41 -172l-50 -122l-34 -129q-10 -35 -66 -35q-53 0 -90 39q-39 43 -39 94q0 35 53 178q2 4 6.5 18.5t11.5 40t15 50.5q16 16 33 41q16 74 266 675l-12 15q-147 -63 -238 -64q-3 0 -49 12.5t-49 12.5q-8 0 -16 -4l-17 -4q-43 0 -125 47q-65 40 -86 61q-49 55 -63 129 q4 8 4 12q0 2 -1 5.5t-3 5.5q-33 39 -33 141z" />
<glyph unicode="&#xff;" horiz-adv-x="1081" d="M41 446q0 102 12 129q33 70 62 70q80 0 104 -143q6 -29 19 -150q51 -90 143 -90q10 2 76 19q78 20 102 24q104 20 211 88l176 113q6 8 21.5 25.5t23.5 27.5h96q45 -63 46 -127q0 -23 -41 -106q-43 -88 -70 -127q-29 -20 -47 -41q-25 -61 -78 -166l-4 -12l-2 -3 q-3 0 -19 -30q-16 -10 -41 -41q-4 -12 -14 -76q-25 0 -37 -31l-47 -121q-20 -51 -65 -118q4 -20 4 -45q-12 -18 -39 -64q0 -10 -39 -164l-47 -116q0 -2 -4 -15.5l-13.5 -45.5t-17.5 -62q-8 -33 -61 -33q-47 0 -86 39q-35 39 -35 88q0 35 49 170q25 74 33 102q8 8 28 39 q16 74 254 643l-12 13q-141 -61 -223 -62q-6 0 -49 12.5t-48 12.5q-1 0 -4 -2q-5 -2 -10 -2l-16 -5q-43 0 -119 46q-61 35 -82 59q-41 47 -57 123q2 2 2 10q-2 4 -2 10q-33 39 -33 135zM303 811q0 65 49 104l84 -32q74 -29 74 -70q0 -35 -33 -68q-31 -31 -69 -30 q-41 0 -72 30q-33 33 -33 66zM731 811q0 53 10 80h66q90 0 90 -119q0 -72 -66 -72q-100 0 -100 111z" />
<glyph unicode="&#x152;" horiz-adv-x="2799" d="M45 549q0 158 94 321v7q0 25 -10 59q-6 27 -6 51q0 90 76 172q41 41 161 103q2 0 205 65q109 35 127 35l3 -1q3 -1 9.5 -2t12.5 -1t13 -3q7 -2 9 -1q14 0 17 20l67 23q78 25 209 24q295 0 371 -41q6 0 21.5 -2t44 -5t53.5 -5q49 -6 90 -6q25 0 143 27q18 4 176 4l2 1 q2 1 5.5 2t8.5 2t11 3q10 2 21 6l6 2q2 0 6 -1t11 -3t15 -4l15.5 -4l11.5 -3l4 -1q3 0 25 6q14 4 24 4q25 6 213 6h266q23 0 113 10l113 11q147 0 147 -99q0 -80 -135 -92q-37 0 -182 -10q-20 4 -33 4q-100 -27 -238 -33q-55 0 -235 -10q-53 -2 -137 -31v-20q20 -16 30 -29 q45 -57 58 -139q8 -43 8 -205q43 -12 84 -12q10 0 52 2t73 4l123 8h8q59 0 201 -49q27 -8 26 -43q0 -70 -176 -88q-59 -2 -182 -10q-18 -8 -230 -33h-30q-43 0 -109 -6l-129 -99q-47 -35 -180 -106q-90 -47 -115 -82q414 0 733 18q2 0 29 3l90.5 10.5t130.5 13.5l178 18 q115 0 115 -127q0 -25 -2 -38q-27 -16 -100 -44q-197 -25 -240 -24l-590 -35l-588 -33h-18q-86 0 -133 47q-2 6 -6 23q-29 35 -49 35q-2 0 -43 -10.5t-39 -10.5q-188 -23 -287 -22q-63 0 -168 16q-115 18 -143 31q-20 20 -52 41q-29 6 -69 26q-25 20 -139 136q-2 2 -35 106 q-31 99 -31 117zM229 623q0 -25 13 -70q20 -88 96 -170q72 -80 156 -102q98 -25 217 -25q104 0 376 70q166 43 316 114q258 121 401 254q98 92 99 158q0 55 -64 133q-66 82 -121 102q-145 59 -288 107q-49 16 -103 27q-57 12 -170 12l-5 1q-5 1 -15.5 2t-22.5 1q-27 2 -41 2 q-109 0 -334 -45l-73 -31q8 -8 8 -24l-1 -4q-1 -4 -4 -12.5t-5 -16.5q-10 -25 -11 -33q-31 -47 -170 -90q-4 -6 -24 -27q-55 -18 -137 -127q-76 -102 -80 -172q-2 -6 -6 -16q-7 -15 -7 -18z" />
<glyph unicode="&#x153;" horiz-adv-x="1679" d="M37 328q0 137 108 252q33 20 101 77q18 39 59 93q59 41 152 41q80 0 151 -11q63 -10 154 -45q8 -4 39 -24q33 -20 49 -21q2 0 59 35q63 39 82 47q156 66 195 66q70 0 127 -15l80 -39q137 -66 151 -110q10 -31 10 -68q0 -59 -116 -207q-74 0 -109 -10l-274 -80 q20 -33 61 -39q123 -18 168 -18l7 1q7 1 20.5 2t28 1t27.5 1t19 2l7 1q184 0 229 -37q23 -23 23 -65q0 -10 1 -18.5t1 -12.5v-4q2 2 2 6q-6 -16 -52 -43q-27 -4 -186 -31q-92 -16 -154 -16q-104 0 -108 -2q4 0 10 -2q-45 4 -170 37l-55 30q-53 29 -57 29q-14 0 -72 -33 q-84 -45 -96 -51q-61 -27 -134 -27h-124q-88 0 -225.5 70t-180.5 135q-8 15 -8 103zM229 356q0 -55 150 -92q106 -27 194 -26q98 0 152 65q31 41 31 129q0 61 -4 66q-37 43 -107 67q-31 10 -80 10q-14 -10 -65 -28q-35 -4 -74 -15q-197 -129 -197 -176zM1014 530 q68 0 157 23q88 23 117 51q-61 18 -80 19q-100 0 -153 -39q-25 -19 -41 -54z" />
<glyph unicode="&#x178;" horiz-adv-x="768" d="M45 934q0 57 25 115h61q0 -6 41 -35l25 -164q43 -156 163 -156q98 0 306 152l278 207q29 20 60 20q18 0 44.5 -26.5t26.5 -40.5q0 -25 -33 -68l-108 -115q-109 -104 -154 -157l-110 -125q-8 -8 -131 -142q-49 -68 -131 -198l-29 -62q-8 -31 -23 -67q-20 -59 -51 -60 q-12 6 -78 43q0 2 -1 7.5t-1 9.5q0 12 4 45q94 203 142 272q10 16 41 33q2 4 2 11q2 7 2 11q14 23 88 109q0 6 10 20q-8 10 -41 11l-8 -2q-8 -2 -27.5 -6.5t-42.5 -8.5q-72 -14 -78 -14q-55 0 -108 35q-57 39 -82 86q-47 94 -72 184q-10 41 -10 76zM279 1303q0 65 49 104 l84 -33q72 -31 71 -67q0 -39 -30.5 -70t-69.5 -31q-43 0 -73.5 31t-30.5 66zM705 1303q0 53 10 79h65q92 0 92 -116q0 -72 -65 -72q-102 0 -102 109z" />
<glyph unicode="&#x2c6;" horiz-adv-x="937" d="M43 1415q68 16 180 111l180 145h5q37 0 108 -33q80 -37 105 -67q51 -33 159 -115q106 -80 107 -151q0 -55 -70 -56l-4 1q-4 1 -11 3t-16 4q-20 4 -32 5q-9 0 -147.5 104t-147.5 104q-33 0 -56 -22q-4 -10 -28 -37l-142 -104q-20 -14 -88 -15q-55 0 -77 45q-5 8 -25 78z " />
<glyph unicode="&#x2dc;" horiz-adv-x="1060" d="M45 1505q2 4 16 19l17 14q43 61 188 170q8 0 19 2q45 29 77 29q94 0 183 -76q102 -90 135 -90q27 0 201 82q156 74 155 80h-2q2 0 31 -9v-40q0 -14 -39 -41q0 -27 -2 -46q-231 -180 -350 -180q-40 0 -172 86q-121 78 -121 84q0 2 2 2q-28 0 -141 -98l-113 -96l-4 1 q-4 1 -11.5 2t-13.5 1q-10 1 -21 3l-5 1q-29 69 -29 100z" />
<glyph unicode="&#x2000;" horiz-adv-x="1001" />
<glyph unicode="&#x2001;" horiz-adv-x="2004" />
<glyph unicode="&#x2002;" horiz-adv-x="1001" />
<glyph unicode="&#x2003;" horiz-adv-x="2004" />
<glyph unicode="&#x2004;" horiz-adv-x="667" />
<glyph unicode="&#x2005;" horiz-adv-x="499" />
<glyph unicode="&#x2006;" horiz-adv-x="333" />
<glyph unicode="&#x2007;" horiz-adv-x="333" />
<glyph unicode="&#x2008;" horiz-adv-x="249" />
<glyph unicode="&#x2009;" horiz-adv-x="399" />
<glyph unicode="&#x200a;" horiz-adv-x="110" />
<glyph unicode="&#x2010;" horiz-adv-x="704" d="M53 442q0 94 97 95q162 0 174 -5q51 -8 157 -8l29 6q35 0 88 -16q33 -41 33 -74q0 -25 -39 -43l-33 -32q-20 -16 -61 -17q-4 0 -11.5 1t-11.5 1q-18 -4 -94 -16h-135l-135 16q-8 2 -48 29q-10 45 -10 63z" />
<glyph unicode="&#x2011;" horiz-adv-x="704" d="M53 442q0 94 97 95q162 0 174 -5q51 -8 157 -8l29 6q35 0 88 -16q33 -41 33 -74q0 -25 -39 -43l-33 -32q-20 -16 -61 -17q-4 0 -11.5 1t-11.5 1q-18 -4 -94 -16h-135l-135 16q-8 2 -48 29q-10 45 -10 63z" />
<glyph unicode="&#x2012;" horiz-adv-x="704" d="M53 442q0 94 97 95q162 0 174 -5q51 -8 157 -8l29 6q35 0 88 -16q33 -41 33 -74q0 -25 -39 -43l-33 -32q-20 -16 -61 -17q-4 0 -11.5 1t-11.5 1q-18 -4 -94 -16h-135l-135 16q-8 2 -48 29q-10 45 -10 63z" />
<glyph unicode="&#x2013;" horiz-adv-x="1605" d="M37 375v53q0 94 10 113q27 51 86 51h-6l18 -2q37 -4 68 -4q33 -2 106 -2h343l67 4q68 4 135 10l203 18q61 -8 184 -18l187 -14q31 0 61 14q78 -68 78 -98q0 -102 -266 -103q-4 0 -14.5 1t-30 2t-37.5 1l-86 5q-6 0 -56 -13q-23 -6 -75 -12q-537 -55 -799 -55 q-90 0 -176 49z" />
<glyph unicode="&#x2014;" horiz-adv-x="2762" d="M35 571q39 39 65 47q43 12 121 13q2 0 9.5 -1t19.5 -2t22 -3l58 -9q14 -2 352 -2q61 0 129 2l131 2q8 0 29 -6q23 -8 26 -8q16 0 226 10l223 11q135 6 258 6q184 0 301 -10q221 -18 279 -19h213q108 0 129 6q23 -20 59 -39v-6q0 -27 -29 -123q-172 -29 -291 -28h2h-14 h-45l-149 -4l-234 -5l-475 5h-59q-260 0 -594 -9q-43 0 -242 -8l-41 -10h-258q-174 0 -211 43q0 23 -4 68q-6 67 -6 79z" />
<glyph unicode="&#x2018;" horiz-adv-x="540" d="M43 1260q0 51 88 219l49 43q20 37 33 55q160 154 201 154q25 0 82 -41q2 -4 14 -56q8 -41 8 -51q0 -31 -37 -65l-65 -29q-66 -45 -174 -191q-18 -25 -29 -100q-10 -78 -16 -100q-8 -18 -41 -19q-49 0 -86 82q-27 60 -27 99z" />
<glyph unicode="&#x2019;" horiz-adv-x="514" d="M63 1217q0 14 95 124q57 66 102 209q2 39 10 107q12 80 52 80q51 0 98 -29q37 -20 37 -152q0 -47 -35 -145q-16 -57 -62 -172q-14 -4 -30 -14q-23 -92 -158 -92q-109 0 -109 84z" />
<glyph unicode="&#x201a;" horiz-adv-x="552" d="M-55 -330q0 14 73 107l105 133q63 82 72 141q2 12 5 35t7 43.5t8 38.5q2 4 15.5 22.5t21.5 30.5h33q94 0 94 -172q0 -6 -43 -190l-119 -162q-8 -12 -78 -57q-80 -49 -98 -50q-41 0 -68 25q-28 24 -28 55z" />
<glyph unicode="&#x201c;" horiz-adv-x="673" d="M45 1278q0 115 96 266q89 141 178 197q70 -6 91 -76l32 -119l78 94q55 51 105 52q35 0 63 -13v-22q0 -37 4 -55q27 -23 27 -29q-18 -25 -113 -135q0 -18 -14 -41q-45 -47 -51 -78l-4 -37l-25 -65q0 -23 39 -68q-18 -16 -51 -62h-6q-59 0 -93 58q-15 28 -36 98q0 4 -11 37 q0 3 19 80l8 41.5l6 31.5l2 9q0 16 -12 41q-74 -27 -129 -152l-23 -22l1 -4q1 -4 1 -7q0 -20 -6 -47l-8 -37v3q0 -55 12 -107q20 -63 27 -63h-2q0 -33 -41 -33q-80 0 -129 125q-35 88 -35 139z" />
<glyph unicode="&#x201d;" horiz-adv-x="843" d="M45 1237q0 10 78 94l125 133q33 35 41 80q6 4 33 41q0 6 2 31.5t4 48.5q0 22 24 49q25 27 43 27q45 0 76 -70q37 -84 41 -84q0 -86 -23 -125q-102 -166 -180 -243l-149 -91q-33 16 -70 54q-45 43 -45 55zM389 1204q0 47 62 115q68 70 108 145q23 41 78 181q14 25 45 24 h25q22 -18 61 -61q43 -63 43 -88q0 -12 -18 -33v-8q0 -78 -115 -224q-123 -152 -199 -151q-90 0 -90 100z" />
<glyph unicode="&#x201e;" horiz-adv-x="768" d="M-55 -330q0 10 73 107q2 2 105 133q59 76 72 141l20 117q2 4 15.5 22.5t21.5 30.5h33q94 0 94 -172q0 -6 -43 -190l-119 -162q-8 -12 -78 -57q-80 -49 -98 -50q-41 0 -68 25q-28 24 -28 55zM289 -334q0 20 71 107q20 27 39 48t32 37.5t34 45.5q59 82 70 143q14 84 22 117 q14 14 37 53h33q94 0 94 -174q0 -2 -41 -190q-14 -14 -121 -164q-6 -8 -80 -54q-77 -49 -98 -49q-33 0 -64 27q-28 24 -28 53z" />
<glyph unicode="&#x2022;" horiz-adv-x="792" d="M59 692q0 20 35 158q0 12 -4 18q205 125 268 125q6 0 144 -10q82 -6 180 -111q59 -63 59 -223q-2 0 -20 -45q-31 -106 -195 -143q-72 -16 -131 -17l-34.5 7.5t-23.5 5.5t-9 2q-14 -2 -31 -2q-117 0 -176 61q-62 63 -62 174z" />
<glyph unicode="&#x2026;" horiz-adv-x="1472" d="M63 119q0 14 31 57q-4 8 -4 12q0 63 88 64q33 0 94 -41q27 -63 27 -113q0 -14 -35 -61q-20 -27 -67 -27q-33 0 -84 41q-50 40 -50 68zM641 135q0 33 33 72t61 39q18 0 72 -27q49 -27 49 -39q0 -162 -111 -162q-104 0 -104 117zM1157 119l10 39q10 33 11 49q25 29 77 29 q74 -16 95 -17q0 -35 -2 -51q4 -31 41 -31v-4q0 -31 -46 -76q-47 -45 -85.5 -45t-69.5 33q-31 34 -31 74z" />
<glyph unicode="&#x202f;" horiz-adv-x="399" />
<glyph unicode="&#x2039;" horiz-adv-x="907" d="M78 547q0 4 35 104q504 479 573 479q90 0 90 -96q0 -55 -10 -65l-250 -215q-86 -74 -154 -148q29 -47 82 -47q23 0 236 -65q176 -55 176 -129q0 -92 -72 -93q0 3 -448 142l-170 37q-88 18 -88 96z" />
<glyph unicode="&#x203a;" horiz-adv-x="778" d="M57 274q0 53 33 80l399 287l-374 264q-18 12 -19 76q0 71 43 86q31 -14 97 -37q14 -18 38 -39q94 -35 201 -112l41 -41l143 -86q49 -28 50 -136q0 -49 -78 -104l-115 -78q-164 -113 -256 -190q-92 -74 -96 -74q-107 0 -107 104z" />
<glyph unicode="&#x2044;" horiz-adv-x="684" d="M1159 1599q0 -52 -43 -98l-63 -61q-14 -27 -60 -78q-250 -193 -442 -418q-614 -731 -678 -1065h-102q-23 57 -31 70q-18 34 -19 49q0 47 62 201q57 145 72 166l141 219q82 127 350 456l252 293q31 35 297 260q168 143 205 144q20 0 41 -64q18 -47 18 -74z" />
<glyph unicode="&#x205f;" horiz-adv-x="499" />
<glyph unicode="&#x2122;" horiz-adv-x="1359" d="M53 1620q0 4 1 8t1 6q55 47 156 68q184 41 416 41q86 0 129 -51l75 -123q29 -47 50 -47q47 31 182 141q49 41 145 86q33 -14 68 -41q31 -41 31 -94q0 -4 -2 -11.5l-5.5 -21.5t-5.5 -27q-2 -6 -7 -29.5t-7 -37.5q-10 -96 -27 -168q-10 -37 -63 -37q-63 0 -64 182v17l-20 8 q-27 -14 -82 -59q-98 -109 -160 -109q-16 0 -135 149q-20 -20 -43 -84l-22 -69q-14 -20 -39 -21h-52q-47 100 -47 107l3 9l10.5 30.5t13.5 46.5l25 84q0 16 -27 16q-100 0 -145 -35q-43 -184 -64 -292q-6 -35 -70 -35q-33 0 -61 35q-8 10 -8 69q-6 20 -8 21v-6q0 55 28 186 q-4 2 -18 2q-4 0 -35 -12.5t-35 -12.5q-49 0 -69 58q-13 30 -13 53z" />
<glyph unicode="&#xe000;" horiz-adv-x="985" d="M0 985h985v-985h-985v985z" />
<glyph unicode="&#xfb01;" horiz-adv-x="1789" d="M1464 178q0 41 8 123q16 197 45 340q28 37 68 37q43 0 65 -68q4 -12 13 -481v-2q0 -14 -23 -109l-24 -6h-4q-20 0 -89 25l1 2l2 4q0 20 -23 55q-37 57 -39 68v12zM1556 1057q0 55 39 121l88 12q31 -63 31 -125q0 -23 -59 -92q-99 27 -99 84zM37 334q0 16 28.5 51t49.5 41 q72 20 75 20q2 0 4 -1q3 -3 7 -3q6 -2 12 -2q57 0 72 11q47 31 53 129q27 549 477 854q59 41 131 47l115 16q29 4 172 4t266 -45q31 -6 100 -39q51 -35 60 -63q39 -127 39 -156q0 -35 -4 -55q2 -2 -8.5 -12.5t-10.5 -18.5q0 -4 19 -4l-56 -8q-9 0 -67 55q-68 61 -113 88 q-102 57 -325 57q-2 0 -8.5 -1t-20.5 -4t-29 -5l-51 -10q-141 -14 -342 -213q-40 -40 -98 -190q-63 -168 -64 -259q10 -92 10 -94q27 -12 72 -12l289 47q213 33 311 33q49 0 94 -27q-2 -25 -53 -67q-49 -43 -90 -58q-80 -10 -291 -47q-100 -37 -305 -106q2 -41 41 -123 q53 -59 53 -80q0 -23 -26 -68q-29 -47 -41 -47q-74 0 -160 142l-84 141q-188 -39 -201 -39q-43 0 -73 37q-29 35 -29 84z" />
<glyph unicode="&#xfb02;" horiz-adv-x="1914" d="M1501 233v242l143 924q18 65 19 80v2q0 4 -1 10t-3 19.5t-4 25.5l-7 49l60 119l26 14q31 0 91 -53q55 -52 55 -80v-194q-35 -117 -72 -367q-6 -43 -61 -246q4 -29 4 -63q-20 -82 -41 -226q-2 -37 -2 -102q0 -137 12 -178q-2 -4 -10 -33q23 -27 22 -59q0 -39 -26 -80 q-25 -37 -62 -37q-14 0 -59 29q-43 28 -55 49q-3 9 -13 129q-16 22 -16 26zM37 334q0 16 28.5 51t49.5 41q72 20 75 20q2 0 4 -1q3 -3 7 -3q6 -2 12 -2q57 0 72 11q47 31 53 129q27 549 477 854q59 41 131 47l115 16q29 4 172 4t266 -45q31 -6 100 -39q51 -35 60 -63 q39 -127 39 -156q0 -35 -4 -55q2 -2 -8.5 -12.5t-10.5 -18.5q0 -4 19 -4l-56 -8q-9 0 -67 55q-68 61 -113 88q-102 57 -325 57q-2 0 -8.5 -1t-20.5 -4t-29 -5l-51 -10q-141 -14 -342 -213q-40 -40 -98 -190q-63 -168 -64 -259q10 -92 10 -94q27 -12 72 -12l289 47 q213 33 311 33q49 0 94 -27q-2 -25 -53 -67q-49 -43 -90 -58q-80 -10 -291 -47q-100 -37 -305 -106q2 -41 41 -123q53 -59 53 -80q0 -23 -26 -68q-29 -47 -41 -47q-74 0 -160 142l-84 141q-188 -39 -201 -39q-43 0 -73 37q-29 35 -29 84z" />
<glyph unicode="&#xfb03;" horiz-adv-x="3123" d="M2797 178q0 41 8 123q16 197 45 340q28 37 68 37q43 0 65 -68q4 -12 13 -481v-2q0 -14 -23 -109l-24 -6h-4q-20 0 -89 25l1 2l2 4q0 20 -23 55q-37 57 -39 68v12zM2889 1057q0 55 39 121l88 12q31 -63 31 -125q0 -23 -59 -92q-99 27 -99 84zM1370 334q0 16 28.5 51 t49.5 41q72 20 75 20q2 0 4 -1q3 -3 7 -3q6 -2 12 -2q57 0 72 11q47 31 53 129q27 549 477 854q59 41 131 47l115 16q29 4 172 4t266 -45q31 -6 100 -39q51 -35 60 -63q39 -127 39 -156q0 -35 -4 -55q2 -2 -8.5 -12.5t-10.5 -18.5q0 -4 19 -4l-56 -8q-9 0 -67 55 q-68 61 -113 88q-102 57 -325 57q-2 0 -8.5 -1t-20.5 -4t-29 -5l-51 -10q-141 -14 -342 -213q-40 -40 -98 -190q-63 -168 -64 -259q10 -92 10 -94q27 -12 72 -12l289 47q213 33 311 33q49 0 94 -27q-2 -25 -53 -67q-49 -43 -90 -58q-80 -10 -291 -47q-100 -37 -305 -106 q2 -41 41 -123q53 -59 53 -80q0 -23 -26 -68q-29 -47 -41 -47q-74 0 -160 142l-84 141q-188 -39 -201 -39q-43 0 -73 37q-29 35 -29 84zM37 334q0 16 28.5 51t49.5 41q72 20 75 20q2 0 4 -1q3 -3 7 -3q6 -2 12 -2q57 0 72 11q47 31 53 129q27 549 477 854q59 41 131 47 l115 16q29 4 172 4t266 -45q31 -6 100 -39q51 -35 60 -63q39 -127 39 -156q0 -35 -4 -55q2 -2 -8.5 -12.5t-10.5 -18.5q0 -4 19 -4l-56 -8q-9 0 -67 55q-68 61 -113 88q-102 57 -325 57q-2 0 -8.5 -1t-20.5 -4t-29 -5l-51 -10q-141 -14 -342 -213q-40 -40 -98 -190 q-63 -168 -64 -259q10 -92 10 -94q27 -12 72 -12l289 47q213 33 311 33q49 0 94 -27q-2 -25 -53 -67q-49 -43 -90 -58q-80 -10 -291 -47q-100 -37 -305 -106q2 -41 41 -123q53 -59 53 -80q0 -23 -26 -68q-29 -47 -41 -47q-74 0 -160 142l-84 141q-188 -39 -201 -39 q-43 0 -73 37q-29 35 -29 84z" />
<glyph unicode="&#xfb04;" horiz-adv-x="3248" d="M2834 233v242l143 924q18 65 19 80v2q0 4 -1 10t-3 19.5t-4 25.5l-7 49l60 119l26 14q31 0 91 -53q55 -52 55 -80v-194q-35 -117 -72 -367q-6 -43 -61 -246q4 -29 4 -63q-20 -82 -41 -226q-2 -37 -2 -102q0 -137 12 -178q-2 -4 -10 -33q23 -27 22 -59q0 -39 -26 -80 q-25 -37 -62 -37q-14 0 -59 29q-43 28 -55 49q-3 9 -13 129q-16 22 -16 26zM1370 334q0 16 28.5 51t49.5 41q72 20 75 20q2 0 4 -1q3 -3 7 -3q6 -2 12 -2q57 0 72 11q47 31 53 129q27 549 477 854q59 41 131 47l115 16q29 4 172 4t266 -45q31 -6 100 -39q51 -35 60 -63 q39 -127 39 -156q0 -35 -4 -55q2 -2 -8.5 -12.5t-10.5 -18.5q0 -4 19 -4l-56 -8q-9 0 -67 55q-68 61 -113 88q-102 57 -325 57q-2 0 -8.5 -1t-20.5 -4t-29 -5l-51 -10q-141 -14 -342 -213q-40 -40 -98 -190q-63 -168 -64 -259q10 -92 10 -94q27 -12 72 -12l289 47 q213 33 311 33q49 0 94 -27q-2 -25 -53 -67q-49 -43 -90 -58q-80 -10 -291 -47q-100 -37 -305 -106q2 -41 41 -123q53 -59 53 -80q0 -23 -26 -68q-29 -47 -41 -47q-74 0 -160 142l-84 141q-188 -39 -201 -39q-43 0 -73 37q-29 35 -29 84zM37 334q0 16 28.5 51t49.5 41 q72 20 75 20q2 0 4 -1q3 -3 7 -3q6 -2 12 -2q57 0 72 11q47 31 53 129q27 549 477 854q59 41 131 47l115 16q29 4 172 4t266 -45q31 -6 100 -39q51 -35 60 -63q39 -127 39 -156q0 -35 -4 -55q2 -2 -8.5 -12.5t-10.5 -18.5q0 -4 19 -4l-56 -8q-9 0 -67 55q-68 61 -113 88 q-102 57 -325 57q-2 0 -8.5 -1t-20.5 -4t-29 -5l-51 -10q-141 -14 -342 -213q-40 -40 -98 -190q-63 -168 -64 -259q10 -92 10 -94q27 -12 72 -12l289 47q213 33 311 33q49 0 94 -27q-2 -25 -53 -67q-49 -43 -90 -58q-80 -10 -291 -47q-100 -37 -305 -106q2 -41 41 -123 q53 -59 53 -80q0 -23 -26 -68q-29 -47 -41 -47q-74 0 -160 142l-84 141q-188 -39 -201 -39q-43 0 -73 37q-29 35 -29 84z" />
</font>
</defs>
</svg>
