<?xml version="1.0" standalone="no"?>
<!DOCTYPE svg PUBLIC "-//W3C//DTD SVG 1.1//EN" "http://www.w3.org/Graphics/SVG/1.1/DTD/svg11.dtd" >
<svg xmlns="http://www.w3.org/2000/svg">
<metadata>
This is a custom SVG webfont generated by Font Squirrel.
Copyright   :  Copyright 1998 Neufville Digital ALL RIGHTS RESERVED This font is licensed not sold and may not be reproduced without the written consent of Neufville Digital Parts  Visualogik Technology  Design 1998
Designer    : Paul Renner 1928
Foundry URL : httpwwwneufvillecom
</metadata>
<defs>
<font id="FuturaMedium" horiz-adv-x="1264" >
<font-face units-per-em="2048" ascent="1638" descent="-410" />
<missing-glyph horiz-adv-x="632" />
<glyph unicode=" "  horiz-adv-x="632" />
<glyph unicode="&#x09;" horiz-adv-x="632" />
<glyph unicode="&#xa0;" horiz-adv-x="632" />
<glyph unicode="!" horiz-adv-x="679" d="M201 112q0 56 41 97t98 41t98 -41t41 -98q0 -58 -41 -99q-40 -40 -98 -40q-59 0 -99 40t-40 100zM227 344v1200h226v-1200h-226z" />
<glyph unicode="&#x22;" horiz-adv-x="840" d="M109 1544h256l-43 -621h-170zM475 1544h256l-43 -621h-170z" />
<glyph unicode="#" d="M42 475v172h253l36 287h-231v176h253l55 448l175 -23l-53 -425h295l56 448l175 -23l-53 -425h224v-176h-243l-36 -287h222v-176h-244l-59 -478l-176 23l57 455h-297l-60 -478l-178 23l57 459h-228zM473 647h296l34 287h-294z" />
<glyph unicode="$" d="M117 431l220 46q45 -152 110 -217q68 -62 181 -62q110 0 184 71q73 70 73 181q0 99 -61 159q-31 29 -91.5 65.5t-154.5 79.5q-194 87 -255 160q-97 109 -97 261q0 72 23 134t66.5 112.5t107.5 87.5t145 58v196h175v-196q118 -19 193 -78t143 -181l-195 -109 q-88 160 -230 160q-88 0 -146 -52t-58 -130q0 -71 47 -118q46 -46 186 -109q121 -55 200 -103.5t119 -93.5q113 -122 113 -295q0 -170 -102 -300q-101 -129 -270 -174v-207h-175v201q-196 32 -299 135t-152 318z" />
<glyph unicode="%" horiz-adv-x="1876" d="M77 1201q0 145 111 252q113 107 261 107q152 0 262 -108q110 -107 110 -256q0 -150 -110 -257t-265 -107q-152 0 -261 109q-108 109 -108 260zM251 1198q0 -84 58 -142t141 -58q81 0 139 58t58 140q0 81 -58 139t-140 58t-140 -58t-58 -137zM441 41l885 1530l109 -62 l-884 -1534zM1054 355q0 144 111 251q113 107 261 107q153 0 263 -108q110 -107 110 -256q0 -151 -111 -257q-109 -106 -265 -106q-152 0 -261 108q-108 108 -108 261zM1229 351q0 -84 57 -142q58 -58 141 -58q82 0 139 58q58 58 58 140t-58 140q-57 58 -140 58 q-81 0 -139 -58t-58 -138z" />
<glyph unicode="&#x26;" horiz-adv-x="1497" d="M124 427q0 231 222 384l101 69q2 1 7 5t14 11q-153 163 -153 321q0 156 102 254q104 98 268 98q159 0 263 -95t104 -240q0 -100 -57 -181q-56 -81 -203 -194l278 -336l9 10q45 49 85 96t77 95l152 -156q-28 -40 -73.5 -93t-108.5 -122l286 -353h-290l-154 189 q-212 -219 -441 -219q-205 0 -348 131q-140 132 -140 326zM348 433q0 -96 77 -176q80 -77 176 -77q135 0 311 177l-305 371l-13 -9q-143 -99 -195 -159q-51 -60 -51 -127zM533 1242q0 -68 54 -134l58 -70q3 -5 12 -15l19 14q49 37 81 64.5t46 46.5q30 37 30 91q0 61 -41 99 t-110 38q-63 0 -106 -39q-43 -37 -43 -95z" />
<glyph unicode="'" horiz-adv-x="474" d="M109 1544h256l-43 -621h-170z" />
<glyph unicode="(" horiz-adv-x="750" d="M185 639q0 610 218 1067l208 -80q-109 -261 -153 -482q-22 -112 -33 -235.5t-11 -269.5q0 -147 11 -270.5t33 -235.5q43 -220 153 -481l-208 -80q-218 457 -218 1067z" />
<glyph unicode=")" horiz-adv-x="750" d="M139 -348q110 261 153 481q45 220 45 506q0 284 -45 505q-44 221 -153 482l208 80q218 -457 218 -1067t-218 -1067z" />
<glyph unicode="*" d="M232 1326l62 191l252 -98l-15 270h201l-16 -270l253 98l62 -191l-262 -68l171 -210l-162 -118l-147 228l-146 -228l-163 118l172 209z" />
<glyph unicode="+" d="M99 710v186h440v432h185v-432h440v-186h-440v-432h-185v432h-440z" />
<glyph unicode="," horiz-adv-x="632" d="M44 -297l237 586l200 -78l-285 -571z" />
<glyph unicode="-" horiz-adv-x="446" d="M0 397v196h446v-196h-446z" />
<glyph unicode="." horiz-adv-x="632" d="M177 112q0 56 41 97t98 41t98 -41t41 -98q0 -58 -41 -99q-40 -40 -98 -40q-59 0 -99 40t-40 100z" />
<glyph unicode="/" horiz-adv-x="1061" d="M-14 -339l882 2045l186 -82l-884 -2046z" />
<glyph unicode="0" d="M87 782q0 369 172 589q154 199 373 199t373 -199q172 -220 172 -599q0 -378 -172 -598q-154 -199 -372 -199t-374 199q-172 220 -172 608zM316 781q0 -257 89 -427q89 -167 227 -167q137 0 227 167q90 166 90 419t-90 420q-90 166 -227 166q-136 0 -226 -166 q-90 -165 -90 -412z" />
<glyph unicode="1" d="M288 1326l128 218h372v-1544h-233v1326h-267z" />
<glyph unicode="2" d="M51 0l536 649q79 97 132.5 168t81.5 119q57 94 57 169q0 108 -76 181t-188 73q-234 0 -268 -277h-232q56 488 493 488q211 0 354 -134q144 -134 144 -332q0 -126 -67 -247q-34 -63 -99.5 -149.5t-165.5 -204.5l-240 -284h575v-219h-1037z" />
<glyph unicode="3" d="M87 418h225q18 -112 87.5 -171.5t181.5 -59.5q113 0 187 75q74 77 74 195q0 156 -111 222q-65 38 -201 38v199q148 0 199 33q91 58 91 186q0 99 -66 161q-65 63 -169 63q-97 0 -150 -47q-51 -48 -76 -162h-232q36 218 148 319.5t313 101.5q203 0 331 -120 q128 -119 128 -307q0 -212 -168 -330q192 -113 192 -367q0 -208 -140 -340t-359 -132q-279 0 -414 205q-56 86 -71 238z" />
<glyph unicode="4" d="M19 219l991 1440v-1228h164v-212h-164v-219h-233v219h-758zM421 431h356v517z" />
<glyph unicode="5" d="M39 263l176 149q73 -124 147 -175q74 -50 181 -50q140 0 235 98q95 101 95 245q0 148 -94 242q-94 97 -235 97q-157 0 -271 -137h-77l243 812h638v-218h-476l-76 -256q17 2 32.5 3t28.5 1q225 0 369 -152q145 -151 145 -387q0 -244 -164 -402t-413 -158q-307 0 -484 288z " />
<glyph unicode="6" d="M113 477q0 183 151 388l540 733l171 -128l-369 -502q30 4 51 6t33 2q188 0 325 -144q136 -142 136 -342q0 -212 -152 -364q-151 -151 -363 -151q-210 0 -368 149q-155 149 -155 353zM340 478q0 -121 85 -206t208 -85q120 0 205 85q86 86 86 203q0 123 -85 208 q-86 86 -207 86q-122 0 -207 -85t-85 -206z" />
<glyph unicode="7" d="M98 64l770 1262h-762v218h1151l-974 -1597z" />
<glyph unicode="8" d="M147 439q0 260 209 364q-170 120 -170 327q0 188 129 314q130 126 323 126q192 0 320 -126q128 -125 128 -315q0 -199 -169 -325q93 -50 146 -146q54 -96 54 -216q0 -205 -134 -336t-343 -131q-214 0 -353 132q-140 132 -140 332zM376 447q0 -107 74 -184q75 -76 182 -76 q106 0 181 75q75 76 75 182q0 107 -75 182t-181 75q-105 0 -181 -75q-75 -75 -75 -179zM405 1131q0 -99 67 -166q68 -68 164 -68q95 0 163 68t68 163t-68 163t-163 68t-163 -68t-68 -160z" />
<glyph unicode="9" d="M113 1054q0 213 151 364q152 152 364 152q211 0 367 -150q156 -149 156 -352q0 -180 -152 -389l-539 -732l-171 127l369 503q-30 -4 -51 -6t-34 -2q-187 0 -324 143q-136 142 -136 342zM340 1071q0 -125 85 -210q86 -86 207 -86t206 85q86 86 86 207t-86 207 q-85 85 -207 85q-120 0 -205 -85q-86 -86 -86 -203z" />
<glyph unicode=":" horiz-adv-x="632" d="M177 112q0 56 41 97t98 41t98 -41t41 -98q0 -58 -41 -99q-40 -40 -98 -40q-59 0 -99 40t-40 100zM177 864q0 55 41 96t98 41t98 -41t41 -98q0 -58 -41 -99q-40 -40 -98 -40t-99 41q-40 40 -40 100z" />
<glyph unicode=";" horiz-adv-x="632" d="M44 -297l237 586l200 -78l-285 -571zM226 863q0 56 41 97t98 41t98 -41t41 -98q0 -58 -41 -99q-40 -40 -98 -40t-99 41q-40 40 -40 99z" />
<glyph unicode="&#x3c;" d="M130 686v197l1004 489v-230l-758 -359l758 -359v-228z" />
<glyph unicode="=" d="M99 556v170h1065v-170h-1065zM99 880v170h1065v-170h-1065z" />
<glyph unicode="&#x3e;" d="M130 195v230l757 358l-757 360v228l1003 -490v-197z" />
<glyph unicode="?" horiz-adv-x="1002" d="M124 1198q0 158 107 263q106 105 268 105q163 0 272 -106t109 -265q0 -163 -109 -263q-69 -63 -260 -122q-130 -40 -130 -126q0 -24 9.5 -45.5t25.5 -37.5t37.5 -25t45.5 -9q110 0 120 154h226q0 -152 -81 -245q-105 -121 -269 -121q-144 0 -241 100q-98 101 -98 247 q0 116 61 186q62 71 210 124q147 54 186 87q40 33 40 102t-41.5 109.5t-110.5 40.5t-110 -40t-41 -109q0 -31 12 -86h-233q-2 26 -3.5 46t-1.5 36zM364 112q0 56 41 97t98 41t98 -41t41 -98q0 -58 -41 -99q-40 -40 -97 -40q-59 0 -99 40q-41 41 -41 100z" />
<glyph unicode="@" horiz-adv-x="1803" d="M108 772q0 339 239 569t590 230q323 0 541 -198q217 -196 217 -491q0 -228 -118 -391q-119 -165 -279 -165q-128 0 -174 121q-123 -126 -274 -126q-165 0 -275 119q-108 118 -108 301q0 197 121 324q121 130 304 130q168 0 271 -130l14 111h151l-63 -525 q-4 -29 -5.5 -55.5t-1.5 -49.5q0 -75 62 -75q87 0 158 123q70 121 70 276q0 246 -172 403q-171 159 -437 159q-278 0 -468 -190q-189 -189 -189 -468q0 -154 68 -302q69 -139 193 -229q166 -120 416 -120q234 0 490 119l15 8l52 -144l-12 -6q-261 -126 -544 -126 q-313 0 -524 151q-155 110 -242 281q-86 180 -86 366zM673 732q0 -104 52 -171t134 -67q105 0 185 89t80 207q0 93 -63 155q-65 62 -158 62q-101 0 -165 -78q-65 -77 -65 -197z" />
<glyph unicode="A" horiz-adv-x="1517" d="M8 0l764 1641l737 -1641h-255l-162 375h-661l-172 -375h-251zM528 594h469l-229 525z" />
<glyph unicode="B" horiz-adv-x="1211" d="M185 0v1544h232q155 0 247 -24q93 -24 157 -81q65 -59 103 -147q39 -89 39 -180q0 -166 -127 -281q123 -42 194 -147q72 -104 72 -242q0 -181 -128 -306q-77 -77 -173 -107q-105 -29 -263 -29h-353zM418 219h144q158 0 232 62q78 67 78 170q0 100 -75 168q-73 67 -261 67 h-118v-467zM418 881h73q130 0 190.5 57.5t60.5 169.5q0 109 -62 165.5t-180 56.5h-82v-449z" />
<glyph unicode="C" horiz-adv-x="1435" d="M108 765q0 295 195 526q240 283 621 283q208 0 402 -113v-276q-202 169 -418 169q-238 0 -401 -171q-164 -170 -164 -416q0 -243 164 -410t402 -167q123 0 209 40q48 20 99.5 54t108.5 82v-281q-200 -113 -420 -113q-331 0 -565 231q-233 233 -233 562z" />
<glyph unicode="D" horiz-adv-x="1487" d="M185 0v1544h324q233 0 368 -46q145 -45 263 -153q239 -218 239 -573q0 -356 -249 -576q-125 -110 -262 -153q-128 -43 -363 -43h-320zM418 219h105q157 0 261 33q104 35 188 111q172 157 172 409q0 254 -170 412q-153 141 -451 141h-105v-1106z" />
<glyph unicode="E" horiz-adv-x="1158" d="M185 0v1544h852v-219h-619v-371h601v-219h-601v-516h619v-219h-852z" />
<glyph unicode="F" horiz-adv-x="1041" d="M185 0v1544h771v-219h-538v-371h519v-219h-519v-735h-233z" />
<glyph unicode="G" horiz-adv-x="1725" d="M108 769q0 336 235 570q235 235 572 235q181 0 338 -74q150 -74 295 -240l-166 -159q-190 253 -463 253q-245 0 -411 -169q-166 -166 -166 -416q0 -258 185 -425q173 -155 375 -155q172 0 309 116q137 117 153 280h-385v219h638v-51q0 -174 -41 -308q-40 -124 -135 -232 q-215 -242 -547 -242q-324 0 -555 234q-231 235 -231 564z" />
<glyph unicode="H" horiz-adv-x="1502" d="M185 0v1544h233v-604h666v604h233v-1544h-233v721h-666v-721h-233z" />
<glyph unicode="I" horiz-adv-x="604" d="M185 0v1544h233v-1544h-233z" />
<glyph unicode="J" horiz-adv-x="840" d="M-38 48l114 199q85 -57 159 -57q104 0 144 79q42 79 42 276v999h234v-999q0 -179 -25 -267q-25 -100 -85 -169q-117 -137 -310 -137q-146 0 -273 76z" />
<glyph unicode="K" horiz-adv-x="1357" d="M185 0v1544h233v-616l601 616h311l-698 -699l702 -845h-312l-556 687l-48 -48v-639h-233z" />
<glyph unicode="L" horiz-adv-x="908" d="M185 0v1544h233v-1325h454v-219h-687z" />
<glyph unicode="M" horiz-adv-x="1969" d="M131 0l325 1660l530 -1200l549 1200l292 -1660h-239l-149 932l-457 -1003l-444 1004l-166 -933h-241z" />
<glyph unicode="N" horiz-adv-x="1729" d="M185 0v1649l1126 -1178v1073h233v-1638l-1126 1175v-1081h-233z" />
<glyph unicode="O" horiz-adv-x="1830" d="M108 779q0 326 239 560q238 234 572 234q330 0 566 -236q237 -236 237 -567q0 -333 -238 -565q-239 -233 -577 -233q-299 0 -537 207q-262 229 -262 600zM343 776q0 -256 172 -421q171 -165 395 -165q243 0 410 168q167 170 167 414q0 247 -165 414q-164 168 -406 168 q-241 0 -407 -168q-166 -166 -166 -410z" />
<glyph unicode="P" horiz-adv-x="1106" d="M185 0v1544h264q194 0 293 -27q100 -27 176 -102q133 -130 133 -328q0 -212 -142 -336t-383 -124h-108v-627h-233zM418 843h87q321 0 321 247q0 239 -331 239h-77v-486z" />
<glyph unicode="Q" horiz-adv-x="1830" d="M108 765q0 349 245 582q238 226 562 226q294 0 527 -198q280 -238 280 -621q0 -300 -221 -533l255 -249h-293l-121 124q-193 -124 -430 -124q-307 0 -545 208q-259 229 -259 585zM343 763q0 -250 166 -409q173 -164 395 -164q151 0 273 69l-363 352h301l224 -223 q148 154 148 381q0 249 -165 417t-410 168q-248 0 -408 -168q-161 -167 -161 -423z" />
<glyph unicode="R" horiz-adv-x="1233" d="M185 0v1544h273q306 0 442 -115q150 -128 150 -338q0 -164 -94 -282t-248 -151l478 -658h-285l-441 632h-42v-632h-233zM418 835h74q331 0 331 253q0 237 -322 237h-83v-490z" />
<glyph unicode="S" horiz-adv-x="1194" d="M108 426l236 52q16 -136 56 -188q72 -100 210 -100q109 0 181 73t72 185q0 45 -12.5 82.5t-39 69t-68.5 59t-100 52.5l-149 62q-317 134 -317 392q0 174 133 291q133 118 331 118q267 0 417 -260l-189 -112q-53 92 -101 120q-50 32 -129 32q-97 0 -161 -55 q-64 -54 -64 -136q0 -113 168 -182l154 -63q188 -76 275 -185.5t87 -268.5q0 -213 -142 -352q-143 -140 -355 -140q-201 0 -332 119q-129 119 -161 335z" />
<glyph unicode="T" horiz-adv-x="988" d="M23 1325v219h942v-219h-354v-1325h-233v1325h-355z" />
<glyph unicode="U" horiz-adv-x="1513" d="M185 550v994h233v-930q0 -199 65 -291q97 -133 273 -133q177 0 274 133q65 89 65 291v930h233v-994q0 -244 -152 -402q-171 -176 -420 -176t-419 176q-152 158 -152 402z" />
<glyph unicode="V" horiz-adv-x="1385" d="M8 1544h255l427 -1070l433 1070h255l-693 -1660z" />
<glyph unicode="W" horiz-adv-x="2172" d="M8 1544h253l402 -1032l420 1107l402 -1107l427 1032h253l-690 -1642l-397 1094l-414 -1095z" />
<glyph unicode="X" horiz-adv-x="1265" d="M23 0l485 807l-425 737h265l295 -523l310 523h267l-445 -737l467 -807h-261l-342 591l-352 -591h-264z" />
<glyph unicode="Y" horiz-adv-x="1229" d="M-7 1544h268l353 -617l354 617h268l-506 -877v-667h-233v667z" />
<glyph unicode="Z" horiz-adv-x="1280" d="M69 0l758 1325h-634v219h1017l-758 -1325h741v-219h-1124z" />
<glyph unicode="[" horiz-adv-x="732" d="M201 -410v2099h423v-211h-194v-1676h194v-212h-423z" />
<glyph unicode="\" horiz-adv-x="1061" d="M8 1624l186 82l883 -2045l-184 -83z" />
<glyph unicode="]" horiz-adv-x="732" d="M108 -198h195v1676h-195v211h423v-2099h-423v212z" />
<glyph unicode="^" horiz-adv-x="1158" d="M36 812l391 739h304l392 -739h-246l-298 555l-298 -555h-245z" />
<glyph unicode="_" horiz-adv-x="1158" d="M0 -129h1158v-210h-1158v210z" />
<glyph unicode="`" horiz-adv-x="1158" d="M197 1454l211 110l276 -364l-124 -76z" />
<glyph unicode="a" horiz-adv-x="1228" d="M96 490q0 219 131 365t328 146q170 0 305 -140v113h226v-974h-226v102q-139 -130 -299 -130q-202 0 -334 146q-131 149 -131 372zM326 490q0 -140 75 -228q77 -89 194 -89q125 0 202 86q77 89 77 226t-77 226q-77 87 -200 87q-116 0 -194 -88q-77 -89 -77 -220z" />
<glyph unicode="b" horiz-adv-x="1228" d="M142 0v1689h225v-828q135 140 306 140q197 0 328 -147q131 -146 131 -364q0 -225 -132 -372q-131 -146 -331 -146q-169 0 -302 130v-102h-225zM354 487q0 -142 76 -227q76 -87 200 -87q117 0 194 87q78 88 78 220q0 140 -76 228q-77 90 -193 90q-124 0 -202 -87 q-77 -86 -77 -224z" />
<glyph unicode="c" horiz-adv-x="976" d="M96 483q0 218 154 368t378 150q144 0 272 -69v-299q-77 94 -138 129q-60 36 -141 36q-127 0 -211 -89t-84 -223q0 -137 81 -225q82 -88 209 -88q81 0 143 35q60 34 141 132v-297q-137 -71 -274 -71q-226 0 -378 146q-152 147 -152 365z" />
<glyph unicode="d" horiz-adv-x="1228" d="M96 490q0 218 131 364q130 147 327 147q171 0 306 -140v828h226v-1689h-226v102q-133 -130 -301 -130q-200 0 -332 146q-131 149 -131 372zM326 490q0 -140 75 -228q77 -89 194 -89q125 0 202 86q77 89 77 226t-77 226q-77 87 -200 87q-116 0 -194 -88q-77 -89 -77 -220z " />
<glyph unicode="e" horiz-adv-x="1133" d="M96 486q0 231 128 374q129 141 342 141q215 0 340 -137q124 -136 124 -377l-1 -53h-698q9 -120 78 -191q69 -70 177 -70q84 0 139 40q54 40 123 148l190 -106q-44 -75 -93 -128.5t-105 -88t-121 -50.5t-141 -16q-218 0 -350 140q-132 141 -132 374zM346 618h452 q-47 180 -227 180q-41 0 -77 -12.5t-65.5 -36t-50.5 -56.5t-32 -75z" />
<glyph unicode="f" horiz-adv-x="608" d="M69 764v210h80v376q0 184 64 260q88 106 256 106q60 0 151 -35v-230l-23 12q-73 37 -120 37q-60 0 -81 -43q-21 -42 -21 -162v-321h245v-210h-245v-764h-226v764h-80z" />
<glyph unicode="g" horiz-adv-x="1226" d="M96 481q0 213 119 362q128 158 338 158q184 0 306 -137v110h225v-951q0 -69 -4.5 -121.5t-12.5 -92.5q-24 -110 -94 -189q-132 -152 -363 -152q-195 0 -321 105q-130 108 -150 299h226q13 -72 43 -111q70 -91 204 -91q247 0 247 303v136q-134 -137 -309 -137 q-199 0 -326 144q-128 146 -128 365zM326 484q0 -133 67 -218q73 -93 202 -93t204 94q69 85 69 218q0 142 -76 227q-77 87 -197 87q-128 0 -202 -95q-67 -85 -67 -220z" />
<glyph unicode="h" horiz-adv-x="1123" d="M142 0v1689h225v-796q120 108 265 108q165 0 264 -107q84 -93 84 -297v-597h-225v576q0 117 -41.5 169.5t-133.5 52.5q-118 0 -166 -73q-47 -74 -47 -254v-471h-225z" />
<glyph unicode="i" horiz-adv-x="510" d="M108 1379q0 59 43 102t103 43q61 0 104 -43q43 -42 43 -103t-43 -104q-42 -43 -103 -43t-104 43t-43 105zM142 0v974h225v-974h-225z" />
<glyph unicode="j" horiz-adv-x="510" d="M108 1379q0 59 43 102t103 43q61 0 104 -43q43 -42 43 -103t-43 -104q-42 -43 -103 -43t-104 43t-43 105zM142 -530v1504h225v-1504h-225z" />
<glyph unicode="k" horiz-adv-x="1020" d="M142 0v1689h225v-1030l317 315h302l-423 -409l454 -565h-292l-322 411l-36 -36v-375h-225z" />
<glyph unicode="l" horiz-adv-x="510" d="M142 0v1689h225v-1689h-225z" />
<glyph unicode="m" horiz-adv-x="1620" d="M142 0v974h225v-90q65 68 111 92q49 25 123 25q165 0 261 -144q106 144 287 144q329 0 329 -399v-602h-226v541q0 140 -34 198q-35 59 -115 59q-93 0 -135.5 -70t-42.5 -225v-503h-226v538q0 260 -150 260q-95 0 -138.5 -71t-43.5 -224v-503h-225z" />
<glyph unicode="n" horiz-adv-x="1123" d="M142 0v974h226v-90q118 117 266 117q170 0 265 -107q82 -91 82 -297v-597h-226v544q0 144 -40 199q-39 56 -142 56q-112 0 -159 -74q-46 -73 -46 -255v-470h-226z" />
<glyph unicode="o" horiz-adv-x="1231" d="M96 494q0 211 151 359t368 148q218 0 370 -149q150 -149 150 -366q0 -219 -151 -367q-152 -147 -373 -147q-219 0 -367 150q-148 148 -148 372zM326 490q0 -146 78 -231q80 -86 211 -86q132 0 211 85t79 227t-79 227q-80 86 -211 86q-129 0 -209 -86t-80 -222z" />
<glyph unicode="p" horiz-adv-x="1228" d="M142 -530v1504h225v-106q133 133 302 133q201 0 331 -148q132 -147 132 -371q0 -219 -131 -365q-130 -145 -328 -145q-171 0 -306 137v-639h-225zM354 486q0 -137 77 -226q76 -87 200 -87q117 0 193 88q78 88 78 220q0 140 -76 228q-77 89 -194 89q-124 0 -201 -86 t-77 -226z" />
<glyph unicode="q" horiz-adv-x="1228" d="M96 482q0 222 131 371q132 148 331 148q169 0 302 -133v106h226v-1504h-226v639q-134 -137 -306 -137q-197 0 -327 145q-131 146 -131 365zM326 492q0 -141 76 -229q76 -90 193 -90q124 0 201 86q78 87 78 226q0 137 -77 226q-77 87 -200 87q-116 0 -194 -88 q-77 -89 -77 -218z" />
<glyph unicode="r" horiz-adv-x="766" d="M142 0v974h225v-87q62 65 110 89q49 25 116 25q89 0 186 -58l-103 -206q-64 46 -125 46q-184 0 -184 -278v-505h-225z" />
<glyph unicode="s" horiz-adv-x="831" d="M76 211l192 89q40 -70 61 -89q41 -38 98 -38q114 0 114 104q0 60 -88 112q-34 17 -68 33t-69 33q-98 48 -138 96q-51 61 -51 157q0 127 87 210q89 83 216 83q187 0 278 -193l-186 -99q-44 90 -109 90q-31 0 -53 -20.5t-22 -52.5q0 -56 130 -111q179 -77 241 -142t62 -175 q0 -141 -104 -236q-101 -90 -244 -90q-245 0 -347 239z" />
<glyph unicode="t" horiz-adv-x="560" d="M53 764v210h96v357h225v-357h175v-210h-175v-764h-225v764h-96z" />
<glyph unicode="u" horiz-adv-x="1116" d="M142 410v564h225v-559q0 -242 191 -242t191 242v559h225v-564q0 -117 -29 -202q-28 -76 -97 -137q-114 -99 -290 -99q-175 0 -289 99q-70 61 -99 137q-28 68 -28 202z" />
<glyph unicode="v" horiz-adv-x="1029" d="M11 974h252l252 -547l251 547h253l-506 -1041z" />
<glyph unicode="w" horiz-adv-x="1585" d="M11 974h253l255 -556l275 645l277 -645l252 556h252l-510 -1047l-271 627l-274 -627z" />
<glyph unicode="x" horiz-adv-x="1143" d="M11 0l433 527l-350 447h268l217 -284l221 284h276l-360 -447l417 -527h-268l-286 364l-293 -364h-275z" />
<glyph unicode="y" horiz-adv-x="1113" d="M11 974h261l298 -560l278 560h254l-776 -1504h-257l380 711z" />
<glyph unicode="z" horiz-adv-x="1113" d="M19 0l631 764h-497v210h942l-630 -762h579v-212h-1025z" />
<glyph unicode="{" horiz-adv-x="732" d="M95 550v193q70 16 100 60t30 131v446q0 171 63.5 248.5t204.5 77.5l77 -2l58 -2v-201h-28q-90 0 -117 -35t-27 -146v-402q0 -106 -29 -173q-29 -58 -111 -107q140 -84 140 -222v-453q0 -114 27 -150q28 -36 117 -36l28 1v-202h-57l-71 -4q-147 0 -211 79t-64 260v492 q0 52 -35 92.5t-95 54.5z" />
<glyph unicode="|" horiz-adv-x="1158" d="M463 -385v1929h232v-1929h-232z" />
<glyph unicode="}" horiz-adv-x="732" d="M105 -222l28 -1q89 0 116 35q28 34 28 147v400q0 107 29 174q29 58 111 107q-140 84 -140 221v455q0 116 -28 150q-29 36 -116 36l-28 -1v202h57l70 4q147 0 211 -79q65 -80 65 -260v-494q0 -52 35 -92.5t95 -54.5v-192q-70 -17 -100 -61t-30 -130v-446 q0 -171 -63.5 -248.5t-204.5 -77.5l-77 3h-58v203z" />
<glyph unicode="~" horiz-adv-x="1544" d="M212 1409l16 35q66 139 139 199t176 60t253 -70q135 -64 212 -64q84 0 115 40l61 76q22 28 41 28q46 0 107 -85q-77 -152 -156 -218q-80 -65 -189 -65q-90 0 -261 78q-130 56 -203 56q-25 0 -59 -15q-35 -14 -45 -29l-64 -89q-20 -26 -39 -26q-45 0 -104 89z" />
<glyph unicode="&#xa1;" horiz-adv-x="679" d="M201 1079q0 58 40 98q41 41 99 41q57 0 98 -41t41 -100q0 -57 -41 -98q-40 -40 -98 -40q-57 0 -98 41t-41 99zM227 -354v1199h226v-1199h-226z" />
<glyph unicode="&#xa2;" d="M187 772q0 383 397 510v197h171v-194l9 -1q122 -15 220 -65v-300q-40 45 -75.5 75.5t-66.5 47.5q-61 34 -143 34q-127 0 -208 -86q-80 -86 -80 -221q0 -133 79 -215t209 -82q90 0 149 35q60 35 136 131v-312q-60 -25 -117 -41t-112 -24v-199h-171v208q-57 17 -99 35.5 t-73 37.5q-66 45 -116 109q-109 136 -109 320z" />
<glyph unicode="&#xa3;" d="M36 67q93 149 148 191q64 51 171 63q24 79 24 143q0 69 -35 134h-264v163h181q-97 193 -97 330q0 199 150 339q152 140 366 140q215 0 353 -141q139 -139 139 -360l-229 -85q0 167 -34 234q-66 133 -230 133q-121 0 -199 -79q-78 -78 -78 -200q0 -102 106 -292 q2 -3 4.5 -7.5t6.5 -11.5h301v-163h-234q26 -102 26 -142q0 -46 -29 -159l15 -5q32 -11 58.5 -20.5t48.5 -17.5q122 -49 178 -49q43 0 75 30q17 16 37.5 45t45.5 72l186 -112q-67 -143 -146 -201q-80 -60 -196 -60q-84 0 -256 59q-167 64 -234 64q-55 0 -87 -26t-72 -110z " />
<glyph unicode="&#xa4;" d="M-54 1406l128 128l230 -230q160 111 330 111q166 0 324 -108l229 226l127 -128l-227 -226q111 -164 111 -326q0 -165 -109 -322l230 -230l-126 -127l-229 228q-156 -111 -329 -111q-165 0 -331 109l-228 -226l-126 127l227 228q-110 152 -110 325q0 164 110 322zM279 852 q0 -148 103 -251q104 -104 251 -104q146 0 249 103q104 104 104 247q0 153 -103 256q-102 105 -251 105q-146 0 -250 -104q-103 -103 -103 -252z" />
<glyph unicode="&#xa5;" d="M40 1544h253l337 -617l340 617h253l-280 -508h241v-164h-331l-94 -169h425v-164h-445v-539h-217v539h-443v164h423l-93 169h-330v164h240z" />
<glyph unicode="&#xa6;" horiz-adv-x="1158" d="M463 355h232v-740h-232v740zM463 758v786h232v-786h-232z" />
<glyph unicode="&#xa7;" d="M167 20h219q28 -237 231 -237q97 0 151.5 54.5t54.5 154.5q0 93 -48 137q-48 45 -225 113q-213 83 -288 167t-75 236q0 251 219 349q-180 108 -180 300q0 169 129 291q130 121 312 121q187 0 309 -132q121 -130 121 -338h-214q-17 254 -215 254q-96 0 -158 -59 q-61 -58 -61 -151q0 -126 163 -184l102 -36q220 -79 301 -166t81 -244q0 -119 -50 -202q-49 -82 -167 -155q93 -63 131 -131q39 -71 39 -173q0 -183 -124 -301q-125 -119 -312 -119q-122 0 -222 52q-101 50 -157 140q-58 91 -67 259zM407 649q0 -95 68 -163q69 -66 167 -66 q96 0 164 66q69 66 69 160q0 95 -69 161q-68 66 -165 66q-98 0 -165 -67q-69 -66 -69 -157z" />
<glyph unicode="&#xa8;" horiz-adv-x="1158" d="M227 1284q0 58 42 99q42 42 101 42t101 -42q42 -41 42 -100q0 -60 -42 -102q-44 -41 -101 -41q-60 0 -102 42q-41 44 -41 102zM645 1284q0 58 42 99q43 42 101 42q60 0 101 -42q42 -41 42 -100q0 -60 -42 -102q-44 -41 -101 -41q-59 0 -101 42t-42 102z" />
<glyph unicode="&#xa9;" horiz-adv-x="1756" d="M77 776q0 186 76 339q77 163 214 276q224 185 503 185q185 0 335 -70q213 -93 343 -295q131 -203 131 -437q0 -335 -234 -570t-566 -235t-568 236q-234 235 -234 571zM206 775q0 -285 197 -488q196 -202 476 -202q277 0 474 201q196 202 196 488q0 153 -77 316 q-76 153 -202 243q-177 126 -397 126q-274 0 -470 -202q-197 -203 -197 -482zM415 769q0 201 148 342t359 141q132 0 256 -67l8 -4v-202l-25 20q-122 95 -248 95q-135 0 -228 -94q-93 -95 -93 -231t93 -227q95 -92 229 -92q122 0 247 98l25 20v-204q-132 -72 -274 -72 q-207 0 -352 139t-145 338z" />
<glyph unicode="&#xaa;" horiz-adv-x="838" d="M94 1222q0 132 82 220t206 88q105 0 185 -78v63h148v-589h-148v57q-86 -74 -181 -74q-126 0 -209 89t-83 224zM244 1222q0 -82 45 -134q46 -52 118 -52q75 0 122 50q47 53 47 133q0 79 -47 132q-47 51 -121 51q-72 0 -118 -52q-46 -49 -46 -128z" />
<glyph unicode="&#xab;" horiz-adv-x="1179" d="M93 494l385 510l149 -110l-299 -399l300 -383l-150 -111zM521 494l385 510l149 -110l-299 -399l300 -383l-150 -111z" />
<glyph unicode="&#xac;" horiz-adv-x="1158" d="M77 402v216h1004v-618h-232v402h-772z" />
<glyph unicode="&#xad;" horiz-adv-x="446" d="M0 397v196h446v-196h-446z" />
<glyph unicode="&#xae;" horiz-adv-x="1756" d="M77 776q0 186 76 339q77 163 214 276q224 185 503 185q185 0 335 -70q213 -93 343 -295q131 -203 131 -437q0 -335 -234 -570t-566 -235t-568 236q-234 235 -234 571zM206 775q0 -285 197 -488q196 -202 476 -202q277 0 474 201q196 202 196 488q0 153 -77 316 q-76 153 -202 243q-177 126 -397 126q-274 0 -470 -202q-197 -203 -197 -482zM590 309v926h185q194 0 283 -69q99 -80 99 -209q0 -87 -53 -161q-53 -72 -135 -96l-12 -4l301 -387h-216l-275 367v-367h-177zM766 824h30q190 0 190 131q0 122 -184 122h-36v-253z" />
<glyph unicode="&#xaf;" horiz-adv-x="1158" d="M229 1163v180h701v-180h-701z" />
<glyph unicode="&#x2c9;" horiz-adv-x="1158" d="M229 1163v180h701v-180h-701z" />
<glyph unicode="&#xb0;" horiz-adv-x="1313" d="M348 1258q0 131 91 219q91 90 222 90q125 0 215 -91q90 -90 90 -217q0 -128 -91 -219q-90 -90 -218 -90t-219 90q-90 91 -90 218zM495 1257q0 -70 48 -119t114 -49q68 0 114 49q48 49 48 119q0 65 -47 110q-46 46 -113 46q-69 0 -117 -45q-47 -45 -47 -111z" />
<glyph unicode="&#xb1;" d="M99 0v185h1065v-185h-1065zM99 710v186h440v432h185v-432h440v-186h-440v-401h-185v401h-440z" />
<glyph unicode="&#xb2;" horiz-adv-x="896" d="M77 618l338 395q48 57 79.5 97.5t48.5 68.5q35 56 35 99q0 61 -44 102t-109 41q-137 0 -157 -164h-157q36 304 310 304q133 0 221 -82q90 -81 90 -202q0 -74 -41 -148q-20 -36 -60 -89t-103 -123l-135 -154h341v-145h-657z" />
<glyph unicode="&#xb3;" horiz-adv-x="896" d="M102 880h153q23 -137 159 -137q65 0 107 42q42 43 42 110q0 78 -44 112t-146 34v132q96 0 126 18q52 31 52 104q0 55 -38 89.5t-99 34.5q-109 0 -131 -123h-157q23 138 92.5 201t198.5 63q128 0 207 -73q81 -74 81 -187q0 -124 -97 -194q110 -68 110 -217 q0 -126 -88 -207q-89 -80 -224 -80q-275 0 -304 278z" />
<glyph unicode="&#xb4;" horiz-adv-x="1158" d="M475 1200l275 364l212 -110l-364 -330z" />
<glyph unicode="&#xb5;" horiz-adv-x="1116" d="M142 -530v1504h225v-564q0 -237 191 -237t191 242v559h225v-564q0 -117 -29 -202q-28 -76 -98 -137q-114 -99 -282 -99q-116 0 -213 51l15 -553h-225z" />
<glyph unicode="&#xb6;" d="M37 1152q0 392 452 392h716l-128 -216h-61v-1548h-213v1548h-172v-1548h-214v995l-26 -1q-158 0 -256 104q-98 107 -98 274z" />
<glyph unicode="&#xb7;" horiz-adv-x="632" d="M177 773q0 56 41 97t98 41t98 -41t41 -98q0 -58 -41 -99q-40 -40 -98 -40q-59 0 -99 40t-40 100z" />
<glyph unicode="&#xb8;" horiz-adv-x="1158" d="M402 -432l199 309l186 -76l-239 -306z" />
<glyph unicode="&#xb9;" horiz-adv-x="896" d="M225 1401l88 143h238v-926h-157v783h-169z" />
<glyph unicode="&#xba;" horiz-adv-x="840" d="M94 1225q0 127 95 216t230 89q137 0 232 -90q95 -89 95 -220q0 -132 -95 -222q-95 -89 -234 -89t-230 91q-93 91 -93 225zM244 1222q0 -85 47 -135.5t128 -50.5t129 49.5t48 133.5q0 42 -12.5 75.5t-35.5 57.5t-55.5 37t-71.5 13q-40 0 -72.5 -13t-56 -36.5t-36 -57 t-12.5 -73.5z" />
<glyph unicode="&#xbb;" horiz-adv-x="1179" d="M124 112l300 383l-300 399l150 110l385 -510l-386 -493zM552 112l300 383l-299 399l149 110l385 -510l-385 -493z" />
<glyph unicode="&#xbc;" horiz-adv-x="1981" d="M179 1401l88 143h238v-926h-157v783h-169zM494 41l885 1530l109 -62l-884 -1534zM1191 130l629 880v-741h99v-139h-99v-130h-159v130h-470zM1467 269h194v273z" />
<glyph unicode="&#xbd;" horiz-adv-x="1981" d="M179 1401l88 143h238v-926h-157v783h-169zM494 41l885 1530l109 -62l-884 -1534zM1210 0l337 396q49 58 81.5 99.5t48.5 67.5q34 52 34 97q0 59 -44 100t-109 41q-138 0 -157 -162h-157q36 304 310 304q133 0 221 -82q90 -81 90 -201q0 -76 -42 -149q-20 -35 -60.5 -88 t-101.5 -123l-136 -155h342v-145h-657z" />
<glyph unicode="&#xbe;" horiz-adv-x="1981" d="M55 880h153q23 -137 159 -137q65 0 107 42q42 43 42 110q0 78 -44 112t-146 34v132q96 0 126 18q52 31 52 104q0 55 -38 89.5t-99 34.5q-109 0 -131 -123h-157q23 138 92.5 201t198.5 63q128 0 207 -73q81 -74 81 -187q0 -124 -97 -194q110 -68 110 -217q0 -126 -88 -207 q-89 -80 -224 -80q-275 0 -304 278zM493 41l885 1530l109 -62l-884 -1534zM1191 130l628 880v-741h99v-139h-99v-130h-159v130h-469zM1466 269h194v273z" />
<glyph unicode="&#xbf;" horiz-adv-x="1003" d="M124 -5q0 162 109 262q70 64 260 122q130 39 130 126q0 49 -34 83t-84 34q-110 0 -119 -154h-226q0 150 80 245q106 121 270 121q142 0 240 -101t98 -246q0 -116 -62 -187q-61 -70 -209 -124q-147 -53 -187 -86q-39 -33 -39 -101q0 -69 42 -109.5t111 -40.5t110 40.5 t41 109.5q0 28 -12 84h233q2 -26 3.5 -46t1.5 -35q0 -158 -107 -263t-268 -105q-164 0 -273 106t-109 265zM363 1079q0 57 41 98t98 41t98 -41t41 -100q0 -57 -41 -98q-40 -40 -98 -40q-57 0 -98 41t-41 99z" />
<glyph unicode="&#xc0;" horiz-adv-x="1517" d="M8 0l764 1641l737 -1641h-255l-162 375h-661l-172 -375h-251zM528 594h469l-229 525zM407 1959l198 139l320 -322l-111 -93z" />
<glyph unicode="&#xc1;" horiz-adv-x="1517" d="M8 0l764 1641l737 -1641h-255l-162 375h-661l-172 -375h-251zM528 594h469l-229 525zM607 1776l321 322l198 -139l-408 -276z" />
<glyph unicode="&#xc2;" horiz-adv-x="1517" d="M8 0l764 1641l737 -1641h-255l-162 375h-661l-172 -375h-251zM528 594h469l-229 525zM421 1802l351 321l356 -321l-154 -119l-202 190l-199 -190z" />
<glyph unicode="&#xc3;" horiz-adv-x="1517" d="M8 0l764 1641l737 -1641h-255l-162 375h-661l-172 -375h-251zM528 594h469l-229 525zM361 1810l29 41q28 40 54 67.5t53 45t56 25t63 7.5q78 0 181 -52q104 -53 134 -53q56 0 124 108l127 -106q-96 -192 -260 -192q-56 0 -183 56q-91 46 -136 46q-55 0 -111 -104z" />
<glyph unicode="&#xc4;" horiz-adv-x="1517" d="M8 0l764 1641l737 -1641h-255l-162 375h-661l-172 -375h-251zM528 594h469l-229 525zM406 1844q0 58 42 100t100 42q60 0 101 -42q42 -42 42 -102q0 -59 -42 -101q-41 -42 -100 -42q-60 0 -102 42q-41 44 -41 103zM855 1844q0 58 42 100t101 42t101 -42t42 -102 q0 -59 -42 -101t-101 -42q-60 0 -102 42q-41 44 -41 103z" />
<glyph unicode="&#xc5;" horiz-adv-x="1517" d="M8 0l764 1641l737 -1641h-255l-162 375h-661l-172 -375h-251zM528 594h469l-229 525zM556 1906q0 88 64 151q64 64 153 64q91 0 154 -64q64 -64 64 -154t-64 -154q-63 -64 -153 -64q-91 0 -155 64q-63 64 -63 157zM675 1904q0 -43 28.5 -71.5t70.5 -28.5t70.5 28.5 t28.5 70.5t-28.5 70.5t-70.5 28.5q-21 0 -39 -8t-31.5 -21.5t-21 -31.5t-7.5 -37z" />
<glyph unicode="&#xc6;" horiz-adv-x="2145" d="M23 0l742 1544h683l97 -219h-615l163 -374h598l98 -219h-599l220 -513h617l94 -219h-856l-162 369h-656l-169 -369h-255zM551 588h459l-221 506z" />
<glyph unicode="&#xc7;" horiz-adv-x="1435" d="M108 765q0 295 195 526q240 283 621 283q208 0 402 -113v-276q-202 169 -418 169q-238 0 -401 -171q-164 -170 -164 -416q0 -243 164 -410t402 -167q123 0 209 40q48 20 99.5 54t108.5 82v-281q-200 -113 -420 -113q-331 0 -565 231q-233 233 -233 562zM602 -442l210 319 l198 -88l-262 -308z" />
<glyph unicode="&#xc8;" horiz-adv-x="1158" d="M185 0v1544h852v-219h-619v-371h601v-219h-601v-516h619v-219h-852zM307 1959l198 139l320 -322l-111 -93z" />
<glyph unicode="&#xc9;" horiz-adv-x="1158" d="M185 0v1544h852v-219h-619v-371h601v-219h-601v-516h619v-219h-852zM443 1776l321 322l198 -139l-408 -276z" />
<glyph unicode="&#xca;" horiz-adv-x="1158" d="M185 0v1544h852v-219h-619v-371h601v-219h-601v-516h619v-219h-852zM260 1802l351 321l356 -321l-154 -119l-202 190l-199 -190z" />
<glyph unicode="&#xcb;" horiz-adv-x="1158" d="M185 0v1544h852v-219h-619v-371h601v-219h-601v-516h619v-219h-852zM251 1844q0 58 42 100t100 42q60 0 101 -42q42 -42 42 -102q0 -59 -42 -101q-41 -42 -100 -42q-60 0 -102 42q-41 44 -41 103zM700 1844q0 58 42 100t101 42t101 -42t42 -102q0 -59 -42 -101t-101 -42 q-60 0 -102 42q-41 44 -41 103z" />
<glyph unicode="&#xcc;" horiz-adv-x="604" d="M185 0v1544h233v-1544h-233zM-72 1959l189 139l305 -322l-111 -93z" />
<glyph unicode="&#xcd;" horiz-adv-x="604" d="M185 0v1544h233v-1544h-233zM182 1776l305 322l190 -139l-384 -276z" />
<glyph unicode="&#xce;" horiz-adv-x="604" d="M185 0v1544h233v-1544h-233zM-51 1802l351 321l356 -321l-154 -119l-202 190l-199 -190z" />
<glyph unicode="&#xcf;" horiz-adv-x="604" d="M185 0v1544h233v-1544h-233zM-29 1844q0 56 41 100q42 42 101 42t101 -42t42 -102q0 -59 -42 -101t-101 -42q-61 0 -101 42q-41 44 -41 103zM348 1844q0 58 42 100q43 42 101 42q59 0 101 -42t42 -102q0 -59 -42 -101t-101 -42t-101 42t-42 103z" />
<glyph unicode="&#xd0;" horiz-adv-x="1487" d="M46 703v200h139v641h324q233 0 368 -46q145 -45 263 -153q239 -218 239 -573q0 -356 -249 -576q-125 -110 -262 -153q-128 -43 -363 -43h-320v703h-139zM418 219h105q157 0 261 33q104 34 188 110q172 157 172 409q0 255 -170 413q-153 141 -451 141h-105v-422h332v-200 h-332v-484z" />
<glyph unicode="&#xd1;" horiz-adv-x="1729" d="M185 0v1649l1126 -1178v1073h233v-1638l-1126 1175v-1081h-233zM449 1810l29 41q28 40 54 67.5t53 45t56 25t63 7.5q78 0 181 -52q104 -53 134 -53q56 0 124 108l127 -106q-96 -192 -260 -192q-56 0 -183 56q-91 46 -136 46q-55 0 -111 -104z" />
<glyph unicode="&#xd2;" horiz-adv-x="1830" d="M108 779q0 326 239 560q238 234 572 234q330 0 566 -236q237 -236 237 -567q0 -333 -238 -565q-239 -233 -577 -233q-299 0 -537 207q-262 229 -262 600zM343 776q0 -256 172 -421q171 -165 395 -165q243 0 410 168q167 170 167 414q0 247 -165 414q-164 168 -406 168 q-241 0 -407 -168q-166 -166 -166 -410zM581 1959l198 139l320 -322l-111 -93z" />
<glyph unicode="&#xd3;" horiz-adv-x="1830" d="M108 779q0 326 239 560q238 234 572 234q330 0 566 -236q237 -236 237 -567q0 -333 -238 -565q-239 -233 -577 -233q-299 0 -537 207q-262 229 -262 600zM343 776q0 -256 172 -421q171 -165 395 -165q243 0 410 168q167 170 167 414q0 247 -165 414q-164 168 -406 168 q-241 0 -407 -168q-166 -166 -166 -410zM751 1776l321 322l198 -139l-408 -276z" />
<glyph unicode="&#xd4;" horiz-adv-x="1830" d="M108 779q0 326 239 560q238 234 572 234q330 0 566 -236q237 -236 237 -567q0 -333 -238 -565q-239 -233 -577 -233q-299 0 -537 207q-262 229 -262 600zM343 776q0 -256 172 -421q171 -165 395 -165q243 0 410 168q167 170 167 414q0 247 -165 414q-164 168 -406 168 q-241 0 -407 -168q-166 -166 -166 -410zM569 1802l351 321l356 -321l-154 -119l-202 190l-199 -190z" />
<glyph unicode="&#xd5;" horiz-adv-x="1830" d="M108 779q0 326 239 560q238 234 572 234q330 0 566 -236q237 -236 237 -567q0 -333 -238 -565q-239 -233 -577 -233q-299 0 -537 207q-262 229 -262 600zM343 776q0 -256 172 -421q171 -165 395 -165q243 0 410 168q167 170 167 414q0 247 -165 414q-164 168 -406 168 q-241 0 -407 -168q-166 -166 -166 -410zM480 1810l29 41q28 40 54 67.5t53 45t56 25t63 7.5q78 0 181 -52q104 -53 134 -53q56 0 124 108l127 -106q-96 -192 -260 -192q-56 0 -183 56q-91 46 -136 46q-55 0 -111 -104z" />
<glyph unicode="&#xd6;" horiz-adv-x="1830" d="M108 779q0 326 239 560q238 234 572 234q330 0 566 -236q237 -236 237 -567q0 -333 -238 -565q-239 -233 -577 -233q-299 0 -537 207q-262 229 -262 600zM343 776q0 -256 172 -421q171 -165 395 -165q243 0 410 168q167 170 167 414q0 247 -165 414q-164 168 -406 168 q-241 0 -407 -168q-166 -166 -166 -410zM550 1844q0 58 42 100t100 42q60 0 101 -42q42 -42 42 -102q0 -59 -42 -101q-41 -42 -100 -42q-60 0 -102 42q-41 44 -41 103zM999 1844q0 58 42 100t101 42t101 -42t42 -102q0 -59 -42 -101t-101 -42q-60 0 -102 42q-41 44 -41 103z " />
<glyph unicode="&#xd7;" d="M175 473l330 330l-330 330l127 127l329 -330l330 330l127 -127l-330 -330l330 -330l-127 -126l-330 329l-329 -329z" />
<glyph unicode="&#xd8;" horiz-adv-x="1828" d="M108 766q0 346 245 579q240 228 567 228q260 0 481 -162l167 170l134 -133l-165 -169q183 -228 183 -511q0 -328 -237 -562t-569 -234q-277 0 -511 177l-166 -165l-128 131l161 166q-162 216 -162 485zM343 763q0 -165 97 -322l798 816q-145 97 -319 97q-247 0 -412 -169 q-164 -170 -164 -422zM569 307q169 -117 348 -117q236 0 402 169t166 412q0 191 -113 355z" />
<glyph unicode="&#xd9;" horiz-adv-x="1513" d="M185 550v994h233v-930q0 -199 65 -291q97 -133 273 -133q177 0 274 133q65 89 65 291v930h233v-994q0 -244 -152 -402q-171 -176 -420 -176t-419 176q-152 158 -152 402zM419 1959l198 139l320 -322l-111 -93z" />
<glyph unicode="&#xda;" horiz-adv-x="1513" d="M185 550v994h233v-930q0 -199 65 -291q97 -133 273 -133q177 0 274 133q65 89 65 291v930h233v-994q0 -244 -152 -402q-171 -176 -420 -176t-419 176q-152 158 -152 402zM591 1776l321 322l198 -139l-408 -276z" />
<glyph unicode="&#xdb;" horiz-adv-x="1513" d="M185 550v994h233v-930q0 -199 65 -291q97 -133 273 -133q177 0 274 133q65 89 65 291v930h233v-994q0 -244 -152 -402q-171 -176 -420 -176t-419 176q-152 158 -152 402zM403 1802l351 321l356 -321l-154 -119l-202 190l-199 -190z" />
<glyph unicode="&#xdc;" horiz-adv-x="1513" d="M185 550v994h233v-930q0 -199 65 -291q97 -133 273 -133q177 0 274 133q65 89 65 291v930h233v-994q0 -244 -152 -402q-171 -176 -420 -176t-419 176q-152 158 -152 402zM387 1844q0 58 42 100t100 42q60 0 101 -42q42 -42 42 -102q0 -59 -42 -101q-41 -42 -100 -42 q-60 0 -102 42q-41 44 -41 103zM836 1844q0 58 42 100t101 42t101 -42t42 -102q0 -59 -42 -101t-101 -42q-60 0 -102 42q-41 44 -41 103z" />
<glyph unicode="&#xdd;" horiz-adv-x="1229" d="M-7 1544h268l353 -617l354 617h268l-506 -877v-667h-233v667zM500 1776l321 322l198 -139l-408 -276z" />
<glyph unicode="&#xde;" horiz-adv-x="1106" d="M185 0v1544h233v-216h31q203 0 293 -28q97 -25 176 -101q133 -130 133 -329q0 -211 -142 -335t-383 -124h-108v-411h-233zM418 627h87q321 0 321 247q0 239 -331 239h-77v-486z" />
<glyph unicode="&#xdf;" horiz-adv-x="1274" d="M62 774v200h80v247q0 239 114 361q126 134 347 134q198 0 327 -123q130 -121 130 -309q0 -198 -165 -310q129 -57 206 -182t77 -275q0 -280 -245 -447q-152 -102 -368 -102v216q174 0 277 94q106 94 106 245q0 165 -125 252q-80 54 -258 72v207q134 0 203 62.5t69 177.5 q0 96 -65 158q-64 61 -168 61q-121 0 -176.5 -67.5t-55.5 -212.5l-4 -123v-1110h-226v774h-80z" />
<glyph unicode="&#xe0;" horiz-adv-x="1228" d="M96 490q0 219 131 365t328 146q170 0 305 -140v113h226v-974h-226v102q-139 -130 -299 -130q-202 0 -334 146q-131 149 -131 372zM326 490q0 -140 75 -228q77 -89 194 -89q125 0 202 86q77 89 77 226t-77 226q-77 87 -200 87q-116 0 -194 -88q-77 -89 -77 -220zM293 1454 l211 110l276 -364l-124 -76z" />
<glyph unicode="&#xe1;" horiz-adv-x="1228" d="M96 490q0 219 131 365t328 146q170 0 305 -140v113h226v-974h-226v102q-139 -130 -299 -130q-202 0 -334 146q-131 149 -131 372zM326 490q0 -140 75 -228q77 -89 194 -89q125 0 202 86q77 89 77 226t-77 226q-77 87 -200 87q-116 0 -194 -88q-77 -89 -77 -220zM472 1200 l275 364l212 -110l-364 -330z" />
<glyph unicode="&#xe2;" horiz-adv-x="1228" d="M96 490q0 219 131 365t328 146q170 0 305 -140v113h226v-974h-226v102q-139 -130 -299 -130q-202 0 -334 146q-131 149 -131 372zM326 490q0 -140 75 -228q77 -89 194 -89q125 0 202 86q77 89 77 226t-77 226q-77 87 -200 87q-116 0 -194 -88q-77 -89 -77 -220zM276 1243 l351 321l356 -321l-154 -119l-202 190l-199 -190z" />
<glyph unicode="&#xe3;" horiz-adv-x="1228" d="M96 490q0 219 131 365t328 146q170 0 305 -140v113h226v-974h-226v102q-139 -130 -299 -130q-202 0 -334 146q-131 149 -131 372zM326 490q0 -140 75 -228q77 -89 194 -89q125 0 202 86q77 89 77 226t-77 226q-77 87 -200 87q-116 0 -194 -88q-77 -89 -77 -220zM219 1251 l29 41q28 40 54 67.5t53 45t56 25t63 7.5q78 0 181 -52q104 -53 134 -53q56 0 124 108l127 -106q-96 -192 -260 -192q-56 0 -183 56q-91 46 -136 46q-55 0 -111 -104z" />
<glyph unicode="&#xe4;" horiz-adv-x="1228" d="M96 490q0 219 131 365t328 146q170 0 305 -140v113h226v-974h-226v102q-139 -130 -299 -130q-202 0 -334 146q-131 149 -131 372zM326 490q0 -140 75 -228q77 -89 194 -89q125 0 202 86q77 89 77 226t-77 226q-77 87 -200 87q-116 0 -194 -88q-77 -89 -77 -220zM269 1284 q0 58 42 99q42 42 101 42t101 -42q42 -41 42 -100q0 -60 -42 -102q-44 -41 -101 -41q-60 0 -102 42q-41 44 -41 102zM687 1284q0 58 42 99q43 42 101 42q60 0 101 -42q42 -41 42 -100q0 -60 -42 -102q-44 -41 -101 -41q-59 0 -101 42t-42 102z" />
<glyph unicode="&#xe5;" horiz-adv-x="1228" d="M96 490q0 219 131 365t328 146q170 0 305 -140v113h226v-974h-226v102q-139 -130 -299 -130q-202 0 -334 146q-131 149 -131 372zM326 490q0 -140 75 -228q77 -89 194 -89q125 0 202 86q77 89 77 226t-77 226q-77 87 -200 87q-116 0 -194 -88q-77 -89 -77 -220zM403 1345 q0 88 64 151q64 64 153 64q91 0 154 -64q64 -64 64 -154t-64 -154q-63 -64 -153 -64q-91 0 -155 64q-63 64 -63 157zM522 1343q0 -43 28.5 -71.5t70.5 -28.5t70.5 28.5t28.5 70.5t-28.5 70.5t-70.5 28.5q-21 0 -39 -8t-31.5 -21.5t-21 -31.5t-7.5 -37z" />
<glyph unicode="&#xe6;" horiz-adv-x="1763" d="M96 296q0 149 106 240q107 92 279 92q123 0 254 -66q0 132 -55 184q-56 53 -188 53q-127 0 -260 -37v209q174 30 282 30q238 0 342 -137q131 137 340 137q213 0 341 -137t128 -363l-2 -64h-702q11 -118 82 -192q70 -72 176 -72q154 0 255 195l194 -108q-32 -61 -69 -107 t-80 -77q-143 -105 -311 -105q-196 0 -353 156q-122 -156 -359 -156q-178 0 -289 90t-111 235zM314 300q0 -57 56 -95q59 -38 142 -38q89 0 149 39q60 40 60 99q0 52 -62 90t-149 38q-82 0 -139 -39t-57 -94zM976 619h451q-41 179 -219 179q-181 0 -232 -179z" />
<glyph unicode="&#xe7;" horiz-adv-x="976" d="M96 483q0 218 154 368t378 150q144 0 272 -69v-299q-77 94 -138 129q-60 36 -141 36q-127 0 -211 -89t-84 -223q0 -137 81 -225q82 -88 209 -88q81 0 143 35q60 34 141 132v-297q-137 -71 -274 -71q-226 0 -378 146q-152 147 -152 365zM329 -432l199 309l186 -76 l-239 -306z" />
<glyph unicode="&#xe8;" horiz-adv-x="1133" d="M96 486q0 231 128 374q129 141 342 141q215 0 340 -137q124 -136 124 -377l-1 -53h-698q9 -120 78 -191q69 -70 177 -70q84 0 139 40q54 40 123 148l190 -106q-44 -75 -93 -128.5t-105 -88t-121 -50.5t-141 -16q-218 0 -350 140q-132 141 -132 374zM346 618h452 q-47 180 -227 180q-41 0 -77 -12.5t-65.5 -36t-50.5 -56.5t-32 -75zM246 1454l211 110l276 -364l-124 -76z" />
<glyph unicode="&#xe9;" horiz-adv-x="1133" d="M96 486q0 231 128 374q129 141 342 141q215 0 340 -137q124 -136 124 -377l-1 -53h-698q9 -120 78 -191q69 -70 177 -70q84 0 139 40q54 40 123 148l190 -106q-44 -75 -93 -128.5t-105 -88t-121 -50.5t-141 -16q-218 0 -350 140q-132 141 -132 374zM346 618h452 q-47 180 -227 180q-41 0 -77 -12.5t-65.5 -36t-50.5 -56.5t-32 -75zM417 1200l275 364l212 -110l-364 -330z" />
<glyph unicode="&#xea;" horiz-adv-x="1133" d="M96 486q0 231 128 374q129 141 342 141q215 0 340 -137q124 -136 124 -377l-1 -53h-698q9 -120 78 -191q69 -70 177 -70q84 0 139 40q54 40 123 148l190 -106q-44 -75 -93 -128.5t-105 -88t-121 -50.5t-141 -16q-218 0 -350 140q-132 141 -132 374zM346 618h452 q-47 180 -227 180q-41 0 -77 -12.5t-65.5 -36t-50.5 -56.5t-32 -75zM222 1243l351 321l356 -321l-154 -119l-202 190l-199 -190z" />
<glyph unicode="&#xeb;" horiz-adv-x="1133" d="M96 486q0 231 128 374q129 141 342 141q215 0 340 -137q124 -136 124 -377l-1 -53h-698q9 -120 78 -191q69 -70 177 -70q84 0 139 40q54 40 123 148l190 -106q-44 -75 -93 -128.5t-105 -88t-121 -50.5t-141 -16q-218 0 -350 140q-132 141 -132 374zM346 618h452 q-47 180 -227 180q-41 0 -77 -12.5t-65.5 -36t-50.5 -56.5t-32 -75zM223 1284q0 58 42 99q42 42 101 42t101 -42q42 -41 42 -100q0 -60 -42 -102q-44 -41 -101 -41q-60 0 -102 42q-41 44 -41 102zM641 1284q0 58 42 99q43 42 101 42q60 0 101 -42q42 -41 42 -100 q0 -60 -42 -102q-44 -41 -101 -41q-59 0 -101 42t-42 102z" />
<glyph unicode="&#xec;" horiz-adv-x="510" d="M142 0v974h225v-974h-225zM-96 1454l203 110l252 -364l-124 -76z" />
<glyph unicode="&#xed;" horiz-adv-x="510" d="M142 0v974h225v-974h-225zM151 1200l253 364l203 -110l-332 -330z" />
<glyph unicode="&#xee;" horiz-adv-x="510" d="M142 0v974h225v-974h-225zM-82 1243l335 321l340 -321l-154 -119l-186 190l-184 -190z" />
<glyph unicode="&#xef;" horiz-adv-x="510" d="M142 0v974h225v-974h-225zM-68 1284q0 58 42 99q40 42 100 42q59 0 101 -42q42 -41 42 -100q0 -60 -42 -102q-44 -41 -101 -41q-61 0 -101 42q-41 44 -41 102zM294 1284q0 58 42 99q42 42 101 42t101 -42q42 -41 42 -100q0 -60 -42 -102q-44 -41 -101 -41q-60 0 -102 42 q-41 44 -41 102z" />
<glyph unicode="&#xf0;" horiz-adv-x="1231" d="M96 483q0 218 150 367q152 149 372 149q82 0 157 -22q-61 109 -131 200.5t-151 166.5l-240 -129l-73 131l190 100q-27 16 -36 21l-72 36l-81 42q-12 6 -54 21l92 140q67 -23 137.5 -57t145.5 -80l45 -27l236 124l79 -130l-187 -100q216 -200 338 -448q122 -255 122 -484 q0 -231 -146 -383q-146 -149 -370 -149q-222 0 -373 147q-150 147 -150 364zM326 489q0 -145 78 -230q80 -86 211 -86q132 0 211 85t79 227q0 141 -79 226q-80 86 -211 86q-129 0 -209 -86t-80 -222z" />
<glyph unicode="&#xf1;" horiz-adv-x="1123" d="M142 0v974h226v-90q118 117 266 117q170 0 265 -107q82 -91 82 -297v-597h-226v544q0 144 -40 199q-39 56 -142 56q-112 0 -159 -74q-46 -73 -46 -255v-470h-226zM137 1251l29 41q28 40 54 67.5t53 45t56 25t63 7.5q78 0 181 -52q104 -53 134 -53q56 0 124 108l127 -106 q-96 -192 -260 -192q-56 0 -183 56q-91 46 -136 46q-55 0 -111 -104z" />
<glyph unicode="&#xf2;" horiz-adv-x="1231" d="M96 494q0 211 151 359t368 148q218 0 370 -149q150 -149 150 -366q0 -219 -151 -367q-152 -147 -373 -147q-219 0 -367 150q-148 148 -148 372zM326 490q0 -146 78 -231q80 -86 211 -86q132 0 211 85t79 227t-79 227q-80 86 -211 86q-129 0 -209 -86t-80 -222zM295 1454 l211 110l276 -364l-124 -76z" />
<glyph unicode="&#xf3;" horiz-adv-x="1231" d="M96 494q0 211 151 359t368 148q218 0 370 -149q150 -149 150 -366q0 -219 -151 -367q-152 -147 -373 -147q-219 0 -367 150q-148 148 -148 372zM326 490q0 -146 78 -231q80 -86 211 -86q132 0 211 85t79 227t-79 227q-80 86 -211 86q-129 0 -209 -86t-80 -222zM466 1200 l275 364l212 -110l-364 -330z" />
<glyph unicode="&#xf4;" horiz-adv-x="1231" d="M96 494q0 211 151 359t368 148q218 0 370 -149q150 -149 150 -366q0 -219 -151 -367q-152 -147 -373 -147q-219 0 -367 150q-148 148 -148 372zM326 490q0 -146 78 -231q80 -86 211 -86q132 0 211 85t79 227t-79 227q-80 86 -211 86q-129 0 -209 -86t-80 -222zM262 1243 l351 321l356 -321l-154 -119l-202 190l-199 -190z" />
<glyph unicode="&#xf5;" horiz-adv-x="1231" d="M96 494q0 211 151 359t368 148q218 0 370 -149q150 -149 150 -366q0 -219 -151 -367q-152 -147 -373 -147q-219 0 -367 150q-148 148 -148 372zM326 490q0 -146 78 -231q80 -86 211 -86q132 0 211 85t79 227t-79 227q-80 86 -211 86q-129 0 -209 -86t-80 -222zM228 1251 l29 41q28 40 54 67.5t53 45t56 25t63 7.5q78 0 181 -52q104 -53 134 -53q56 0 124 108l127 -106q-96 -192 -260 -192q-56 0 -183 56q-91 46 -136 46q-55 0 -111 -104z" />
<glyph unicode="&#xf6;" horiz-adv-x="1231" d="M96 494q0 211 151 359t368 148q218 0 370 -149q150 -149 150 -366q0 -219 -151 -367q-152 -147 -373 -147q-219 0 -367 150q-148 148 -148 372zM326 490q0 -146 78 -231q80 -86 211 -86q132 0 211 85t79 227t-79 227q-80 86 -211 86q-129 0 -209 -86t-80 -222zM263 1284 q0 58 42 99q42 42 101 42t101 -42q42 -41 42 -100q0 -60 -42 -102q-44 -41 -101 -41q-60 0 -102 42q-41 44 -41 102zM681 1284q0 58 42 99q43 42 101 42q60 0 101 -42q42 -41 42 -100q0 -60 -42 -102q-44 -41 -101 -41q-59 0 -101 42t-42 102z" />
<glyph unicode="&#xf7;" d="M99 710v186h1065v-186h-1065zM502 459q0 52 38 90q41 38 92 38q53 0 91 -38t38 -92t-38 -92t-91 -38q-54 0 -92 38q-38 41 -38 94zM502 1151q0 52 38 90q41 38 92 38q53 0 91 -38t38 -92t-38 -92t-91 -38q-54 0 -92 38q-38 41 -38 94z" />
<glyph unicode="&#xf8;" horiz-adv-x="1231" d="M46 35l147 146q-97 142 -97 308q0 215 151 363q152 149 369 149q162 0 305 -95l154 152l102 -108l-150 -147q109 -145 109 -319q0 -216 -151 -364q-148 -148 -366 -148q-184 0 -322 102l-148 -143zM326 483q0 -80 31 -145l401 414q-61 31 -141 31q-133 0 -212 -82 t-79 -218zM458 227q73 -40 158 -40q130 0 210 81q79 82 79 216q0 88 -39 166z" />
<glyph unicode="&#xf9;" horiz-adv-x="1116" d="M142 410v564h225v-559q0 -242 191 -242t191 242v559h225v-564q0 -117 -29 -202q-28 -76 -97 -137q-114 -99 -290 -99q-175 0 -289 99q-70 61 -99 137q-28 68 -28 202zM222 1454l211 110l276 -364l-124 -76z" />
<glyph unicode="&#xfa;" horiz-adv-x="1116" d="M142 410v564h225v-559q0 -242 191 -242t191 242v559h225v-564q0 -117 -29 -202q-28 -76 -97 -137q-114 -99 -290 -99q-175 0 -289 99q-70 61 -99 137q-28 68 -28 202zM424 1200l275 364l212 -110l-364 -330z" />
<glyph unicode="&#xfb;" horiz-adv-x="1116" d="M142 410v564h225v-559q0 -242 191 -242t191 242v559h225v-564q0 -117 -29 -202q-28 -76 -97 -137q-114 -99 -290 -99q-175 0 -289 99q-70 61 -99 137q-28 68 -28 202zM206 1243l351 321l356 -321l-154 -119l-202 190l-199 -190z" />
<glyph unicode="&#xfc;" horiz-adv-x="1116" d="M142 410v564h225v-559q0 -242 191 -242t191 242v559h225v-564q0 -117 -29 -202q-28 -76 -97 -137q-114 -99 -290 -99q-175 0 -289 99q-70 61 -99 137q-28 68 -28 202zM207 1284q0 58 42 99q42 42 101 42t101 -42q42 -41 42 -100q0 -60 -42 -102q-44 -41 -101 -41 q-60 0 -102 42q-41 44 -41 102zM625 1284q0 58 42 99q43 42 101 42q60 0 101 -42q42 -41 42 -100q0 -60 -42 -102q-44 -41 -101 -41q-59 0 -101 42t-42 102z" />
<glyph unicode="&#xfd;" horiz-adv-x="1113" d="M11 974h261l298 -560l278 560h254l-776 -1504h-257l380 711zM453 1200l275 364l212 -110l-364 -330z" />
<glyph unicode="&#xfe;" horiz-adv-x="1228" d="M142 -530v2219h225v-821q133 133 302 133q201 0 331 -148q132 -147 132 -371q0 -219 -131 -365q-130 -145 -328 -145q-171 0 -306 137v-639h-225zM354 486q0 -137 77 -226q76 -87 200 -87q117 0 193 88q78 88 78 220q0 140 -76 228q-77 89 -194 89q-124 0 -201 -86 t-77 -226z" />
<glyph unicode="&#xff;" horiz-adv-x="1113" d="M11 974h261l298 -560l278 560h254l-776 -1504h-257l380 711zM205 1284q0 58 42 99q42 42 101 42t101 -42q42 -41 42 -100q0 -60 -42 -102q-44 -41 -101 -41q-60 0 -102 42q-41 44 -41 102zM623 1284q0 58 42 99q43 42 101 42q60 0 101 -42q42 -41 42 -100q0 -60 -42 -102 q-44 -41 -101 -41q-59 0 -101 42t-42 102z" />
<glyph unicode="&#x131;" horiz-adv-x="510" d="M142 0v974h225v-974h-225z" />
<glyph unicode="&#x152;" horiz-adv-x="2424" d="M108 767q0 303 203 539q231 268 602 268q174 0 294 -58q130 -58 266 -193v221h831v-219h-598v-372h581v-220h-581v-514h598v-219h-831v213q-136 -132 -263 -187q-126 -54 -287 -54q-339 0 -577 232t-238 563zM343 782q0 -247 162 -419t395 -172q239 0 407 168 q168 169 168 408q0 240 -168 413q-167 173 -401 173q-230 0 -396 -169q-167 -170 -167 -402z" />
<glyph unicode="&#x153;" horiz-adv-x="1952" d="M96 483q0 219 152 368q151 150 374 150q246 0 390 -189q133 189 370 189q218 0 346 -137t128 -372l-2 -58h-711q8 -114 82 -188q73 -73 183 -73q159 0 258 192l192 -111q-171 -283 -466 -283q-104 0 -216 50q-103 51 -164 136q-158 -185 -402 -185q-212 0 -364 149 q-150 148 -150 362zM327 490q0 -147 75 -232q76 -85 206 -85q69 0 123 21.5t91.5 62t57 98.5t19.5 132q0 73 -19.5 131t-56.5 98t-90 61t-120 21q-131 0 -209 -84q-77 -83 -77 -224zM1161 618h457q-39 180 -227 180q-181 0 -230 -180z" />
<glyph unicode="&#x178;" horiz-adv-x="1229" d="M-7 1544h268l353 -617l354 617h268l-506 -877v-667h-233v667zM249 1844q0 58 42 100t100 42q60 0 101 -42q42 -42 42 -102q0 -59 -42 -101q-41 -42 -100 -42q-60 0 -102 42q-41 44 -41 103zM698 1844q0 58 42 100t101 42t101 -42t42 -102q0 -59 -42 -101t-101 -42 q-60 0 -102 42q-41 44 -41 103z" />
<glyph unicode="&#x2bb;" horiz-adv-x="669" d="M116 1039l285 572l152 -62l-236 -588z" />
<glyph unicode="&#x2018;" horiz-adv-x="669" d="M116 1039l285 572l152 -62l-236 -588z" />
<glyph unicode="&#x2bc;" horiz-adv-x="669" d="M116 1024l237 587l200 -78l-285 -572z" />
<glyph unicode="&#x2019;" horiz-adv-x="669" d="M116 1024l237 587l200 -78l-285 -572z" />
<glyph unicode="&#x2c6;" horiz-adv-x="1158" d="M226 1243l351 321l356 -321l-154 -119l-202 190l-199 -190z" />
<glyph unicode="&#x2da;" horiz-adv-x="1158" d="M392 1345q0 88 64 151q64 64 153 64q91 0 154 -64q64 -64 64 -154t-64 -154q-63 -64 -153 -64q-91 0 -155 64q-63 64 -63 157zM511 1343q0 -43 28.5 -71.5t70.5 -28.5t70.5 28.5t28.5 70.5t-28.5 70.5t-70.5 28.5q-21 0 -39 -8t-31.5 -21.5t-21 -31.5t-7.5 -37z" />
<glyph unicode="&#x2dc;" horiz-adv-x="1158" d="M169 1251l29 41q28 40 54 67.5t53 45t56 25t63 7.5q78 0 181 -52q104 -53 134 -53q56 0 124 108l127 -106q-96 -192 -260 -192q-56 0 -183 56q-91 46 -136 46q-55 0 -111 -104z" />
<glyph unicode="&#x2000;" horiz-adv-x="1061" />
<glyph unicode="&#x2001;" horiz-adv-x="2123" />
<glyph unicode="&#x2002;" horiz-adv-x="1061" />
<glyph unicode="&#x2003;" horiz-adv-x="2123" />
<glyph unicode="&#x2004;" horiz-adv-x="707" />
<glyph unicode="&#x2005;" horiz-adv-x="530" />
<glyph unicode="&#x2006;" horiz-adv-x="353" />
<glyph unicode="&#x2007;" horiz-adv-x="353" />
<glyph unicode="&#x2008;" horiz-adv-x="265" />
<glyph unicode="&#x2009;" horiz-adv-x="424" />
<glyph unicode="&#x200a;" horiz-adv-x="117" />
<glyph unicode="&#x2010;" horiz-adv-x="446" d="M0 397v196h446v-196h-446z" />
<glyph unicode="&#x2011;" horiz-adv-x="446" d="M0 397v196h446v-196h-446z" />
<glyph unicode="&#x2012;" horiz-adv-x="446" d="M0 397v196h446v-196h-446z" />
<glyph unicode="&#x2013;" horiz-adv-x="1313" d="M237 397v196h838v-196h-838z" />
<glyph unicode="&#x2014;" horiz-adv-x="1336" d="M0 397v196h1336v-196h-1336z" />
<glyph unicode="&#x201a;" horiz-adv-x="669" d="M116 -297l237 586l200 -78l-285 -571z" />
<glyph unicode="&#x201c;" horiz-adv-x="1069" d="M116 1039l285 572l152 -62l-236 -588zM516 1039l285 572l152 -62l-236 -588z" />
<glyph unicode="&#x201d;" horiz-adv-x="1069" d="M116 1024l237 587l200 -78l-285 -572zM516 1024l237 587l200 -78l-285 -572z" />
<glyph unicode="&#x201e;" horiz-adv-x="1069" d="M116 -297l237 586l200 -78l-285 -571zM516 -297l237 586l200 -78l-285 -571z" />
<glyph unicode="&#x2022;" horiz-adv-x="1544" d="M454 787q0 136 94 230q95 95 229 95q128 0 220 -96q93 -95 93 -228q0 -136 -93 -230q-93 -95 -225 -95q-130 0 -225 95q-93 96 -93 229z" />
<glyph unicode="&#x2026;" horiz-adv-x="1934" d="M183 112q0 56 41 97t98 41t98 -41t41 -98q0 -58 -41 -99q-40 -40 -98 -40q-59 0 -99 40t-40 100zM827 112q0 56 41 97t98 41q58 0 99 -41t41 -98q0 -58 -41 -99q-40 -40 -98 -40q-59 0 -99 40q-41 41 -41 100zM1472 112q0 56 41 97t98 41t98 -41t41 -98q0 -58 -41 -99 q-40 -40 -97 -40q-59 0 -99 40q-41 41 -41 100z" />
<glyph unicode="&#x202f;" horiz-adv-x="424" />
<glyph unicode="&#x2039;" horiz-adv-x="751" d="M93 494l385 510l149 -110l-299 -399l300 -383l-150 -111z" />
<glyph unicode="&#x203a;" horiz-adv-x="751" d="M124 112l300 383l-300 399l150 110l384 -510l-385 -493z" />
<glyph unicode="&#x205f;" horiz-adv-x="530" />
<glyph unicode="&#x20ac;" d="M235 861q27 237 190 430q240 283 603 283v-220q-235 0 -399 -170q-70 -73 -111 -160h390v-163h-673zM236 666h672v-163h-384q37 -78 105 -146q164 -167 399 -167v-218q-330 0 -564 231q-196 196 -228 463z" />
<glyph unicode="&#x2122;" horiz-adv-x="1627" d="M-2 1393v151h548v-151h-194v-729h-160v729h-194zM600 664l189 960l293 -650l293 650l189 -960h-164l-82 479l-236 -495l-236 495l-83 -479h-163z" />
<glyph unicode="&#xe000;" horiz-adv-x="975" d="M0 975h975v-975h-975v975z" />
<glyph unicode="&#xfb01;" horiz-adv-x="1087" d="M69 764v210h80v348q0 164 116 280q117 117 282 117q164 0 280 -117q117 -116 117 -280v-91h-225v91q0 74 -48 130q-51 57 -125 57q-73 0 -123 -56q-49 -55 -49 -131v-348h258v-210h-258v-764h-225v764h-80zM719 0v974h225v-974h-225z" />
<glyph unicode="&#xfb02;" horiz-adv-x="1087" d="M69 764v210h80v348q0 164 117 280q117 117 281 117t280 -117q117 -116 117 -280v-1322h-225v1322q0 74 -50 130q-50 57 -123 57t-123 -56q-49 -55 -49 -131v-348h258v-210h-258v-764h-225v764h-80z" />
<glyph unicode="&#xfb03;" horiz-adv-x="1726" d="M1324 1379q0 59 43 102t103 43q61 0 104 -43q43 -42 43 -103t-43 -104q-42 -43 -103 -43t-104 43t-43 105zM1358 0v974h225v-974h-225zM677 764v210h80v376q0 184 64 260q88 106 256 106q60 0 151 -35v-230l-23 12q-73 37 -120 37q-60 0 -81 -43q-21 -42 -21 -162v-321 h245v-210h-245v-764h-226v764h-80zM69 764v210h80v376q0 184 64 260q88 106 256 106q60 0 151 -35v-230l-23 12q-73 37 -120 37q-60 0 -81 -43q-21 -42 -21 -162v-321h245v-210h-245v-764h-226v764h-80z" />
<glyph unicode="&#xfb04;" horiz-adv-x="1726" d="M1358 0v1689h225v-1689h-225zM677 764v210h80v376q0 184 64 260q88 106 256 106q60 0 151 -35v-230l-23 12q-73 37 -120 37q-60 0 -81 -43q-21 -42 -21 -162v-321h245v-210h-245v-764h-226v764h-80zM69 764v210h80v376q0 184 64 260q88 106 256 106q60 0 151 -35v-230 l-23 12q-73 37 -120 37q-60 0 -81 -43q-21 -42 -21 -162v-321h245v-210h-245v-764h-226v764h-80z" />
<glyph horiz-adv-x="1517" d="M406 1844q0 58 42 100t100 42q60 0 101 -42q42 -42 42 -102q0 -59 -42 -101q-41 -42 -100 -42q-60 0 -102 42q-41 44 -41 103zM855 1844q0 58 42 100t101 42t101 -42t42 -102q0 -59 -42 -101t-101 -42q-60 0 -102 42q-41 44 -41 103z" />
<glyph horiz-adv-x="1517" d="M407 1959l198 139l320 -322l-111 -93z" />
<glyph horiz-adv-x="1435" d="M602 -442l210 319l198 -88l-262 -308z" />
<glyph horiz-adv-x="604" d="M182 1776l305 322l190 -139l-384 -276z" />
<glyph horiz-adv-x="604" d="M-72 1959l189 139l305 -322l-111 -93z" />
<glyph horiz-adv-x="510" d="M-68 1284q0 58 42 99q40 42 100 42q59 0 101 -42q42 -41 42 -100q0 -60 -42 -102q-44 -41 -101 -41q-61 0 -101 42q-41 44 -41 102zM294 1284q0 58 42 99q42 42 101 42t101 -42q42 -41 42 -100q0 -60 -42 -102q-44 -41 -101 -41q-60 0 -102 42q-41 44 -41 102z" />
<glyph horiz-adv-x="510" d="M151 1200l253 364l203 -110l-332 -330z" />
<glyph horiz-adv-x="510" d="M-96 1454l203 110l252 -364l-124 -76z" />
<glyph horiz-adv-x="510" d="M-82 1243l335 321l340 -321l-154 -119l-186 190l-184 -190z" />
<glyph horiz-adv-x="604" d="M-51 1802l351 321l356 -321l-154 -119l-202 190l-199 -190z" />
<glyph horiz-adv-x="1517" d="M421 1802l351 321l356 -321l-154 -119l-202 190l-199 -190z" />
<glyph horiz-adv-x="1517" d="M364 1810l29 41q28 40 54 67.5t53 45t56 25t63 7.5q78 0 181 -52q104 -53 134 -53q56 0 124 108l127 -106q-96 -192 -260 -192q-56 0 -183 56q-91 46 -136 46q-55 0 -111 -104z" />
<glyph horiz-adv-x="1517" d="M556 1906q0 88 64 151q64 64 153 64q91 0 154 -64q64 -64 64 -154t-64 -154q-63 -64 -153 -64q-91 0 -155 64q-63 64 -63 157zM675 1904q0 -43 28.5 -71.5t70.5 -28.5t70.5 28.5t28.5 70.5t-28.5 70.5t-70.5 28.5q-21 0 -39 -8t-31.5 -21.5t-21 -31.5t-7.5 -37z" />
<glyph horiz-adv-x="1158" d="M443 1776l321 322l198 -139l-408 -276z" />
<glyph horiz-adv-x="604" d="M-29 1844q0 56 41 100q42 42 101 42t101 -42t42 -102q0 -59 -42 -101t-101 -42q-61 0 -101 42q-41 44 -41 103zM348 1844q0 58 42 100q43 42 101 42q59 0 101 -42t42 -102q0 -59 -42 -101t-101 -42t-101 42t-42 103z" />
</font>
</defs>
</svg>
